ExtraTorrents - The Largest Bittorent System Login   |    Register
Most searched
Hot torrents
Movie Torrents
View Torrent Info: 377 AB Normal 2019 1080p HD Hindi Tamil Telugu MalayalamKannada x264 1 7GB MB
View Torrent Info: Romang (2019) 720p HDRip x264 Ganool
View Torrent Info: A Resistance 2019 720p HDRip x264 AAC-Tv21
View Torrent Info: The Trap 2019 1080p NF WEB-DL DD5 1 H264-CMRG TGx
View Torrent Info: Unplanned 2019 720p HDCAM-1XBET
View Torrent Info: Svaha The Sixth Finger 2019 720p HDRip x264-Tv21
View Torrent Info: 90ml (2019) Tamil Pre DVDRip x264 AAC  Team DRSD
View Torrent Info: Trading Paint (2019)  WEBRip   720p   YTS   YIFY
View Torrent Info: Stay Awesome, China! (2019)  WEBRip   720p   YTS   YIFY
View Torrent Info:  The Dude In Me 2019 720p HDRip 850MB Ganool
Hot torrents
TV Torrents
View Torrent Info: The Blacklist S06E22 720p HDTV x264-AVS
View Torrent Info: Marvels Agents of S H I E L D S06E02 720p HDTV 2CH x265 HEVC-PSA
View Torrent Info: Life in Pieces S04E06 WEB H264-MEMENTO  eztv
View Torrent Info: Superstore S04E21 1080p WEB H264-METCON TGx
View Torrent Info: The Big Bang Theory S12E24 1080p HDTV x264-CRAVERS TGx
View Torrent Info: Superstore S04E22 720p HDTV x265-MiNX TGx
View Torrent Info: The Big Bang Theory S12E23 1080p HDTV x264-CRAVERS TGx
View Torrent Info: iZombie S05E03 720p HDTV x265-MiNX TGx
View Torrent Info: Chicago PD S06E21 HDTV x264-SVA TGx
View Torrent Info: Mysteries At The Museum S23E06 Jolly Jane Challenger Disaster and Attack of the Bunnyman 720p HDTV x264-W4F
ExtraTorrents > Categories > Movies torrents > Bollywood torrents


Browse Movies torrents

Student Of The Year 2 2019 Hindi Movies PDVDRip x264 Clean Audio with Sample ☻rDX☻


Download torrent: Student Of The Year 2 2019 Hindi Movies PDVDRip x264 Clean Audio with Sample ☻rDX☻ Magnet link Student Of The Year 2 2019 Hindi Movies PDVDRip x264 Clean Audio with Sample ☻rDX☻ Student Of The Year 2 2019 Hindi Movies PDVDRip x264 Clean Audio with Sample ☻rDX☻ | if not working, try instead: Magnet Link
Info hash: B4EED90C2BAC238CD769F81E932B1257236AF325
Category: Categories > Movies torrents > Bollywood torrents
Trackers:
14    View all torrent trackers >
Health:
 seeds: 17 ,  leechers: 12
Torrent language: English
Total Size: 712.8 MB
Uploader:
Torrent added: 2019-05-12 11:06

Download Student Of The Year 2 2019 Hindi Movies PDVDRip x264 Clean Audio with Sample ☻rDX☻ torrent if not working, try downloading torrent using Download Student Of The Year 2 2019 Hindi Movies PDVDRip x264 Clean Audio with Sample ☻rDX☻ via Magnet Link




Torrent Description

Student Of The Year 2 2019 Hindi Movies PDVDRip x264 Clean Audio with Sample ☻rDX☻
===============================================================================================

SCREEN SHOTS:



or

https://iphonehosting.eu/19/advocate/ipad/1.html

File size : 710 MiB
Duration : 2 h 21 min
Overall bit rate : 703 kb/s
Movie name : Student Of The Year 2 2019 Hindi Movies PDVDRip x264 Clean Audio ☻rDX☻

Video
ID : 2
Format : AVC
Format/Info : Advanced Video Codec
Format profile : [email protected]
Format settings, CABAC : Yes
Format settings, ReFrames : 2 frames
Format settings, GOP : M=1, N=12
Codec ID : V_MPEG4/ISO/AVC
Duration : 2 h 21 min
Bit rate : 625 kb/s
Width : 700 pixels
Height : 298 pixels
Display aspect ratio : 2.35:1
Frame rate mode : Constant
Frame rate : 25.000 FPS
Color space : YUV
Chroma subsampling : 4:2:0
Bit depth : 8 bits
Scan type : Progressive
Bits/(Pixel*Frame) : 0.120
Stream size : 631 MiB (89%)
Title : ☻rDX☻
Default : Yes
Forced : No

Audio
ID : 1
Format : AC-3
Format/Info : Audio Coding 3
Mode extension : CM (complete main)
Format settings, Endianness : Big
Codec ID : A_AC3
Duration : 2 h 21 min
Bit rate mode : Constant
Bit rate : 64.0 kb/s
Channel(s) : 2 channels
Channel positions : Front: L R
Sampling rate : 44.1 kHz
Frame rate : 28.711 FPS (1536 spf)
Bit depth : 16 bits
Compression mode : Lossy
Stream size : 64.6 MiB (9%)
Title : ☻rDX☻
Default : Yes
Forced : No

https://www.imdb.com/title/tt7255568


Download Student Of The Year 2 2019 Hindi Movies PDVDRip x264 Clean Audio with Sample ☻rDX☻ torrent




Home - Cpasbien - Browse Torrents ExtraTorrents is in compliance with copyrights
2006-2018 ExtraTorrents