ExtraTorrents - The Largest Bittorent System Login   |    Register
Most searched
Hot torrents
Movie Torrents
View Torrent Info: 377 AB Normal 2019 1080p HD Hindi Tamil Telugu MalayalamKannada x264 1 7GB MB
View Torrent Info: Romang (2019) 720p HDRip x264 Ganool
View Torrent Info: A Resistance 2019 720p HDRip x264 AAC-Tv21
View Torrent Info: The Trap 2019 1080p NF WEB-DL DD5 1 H264-CMRG TGx
View Torrent Info: Unplanned 2019 720p HDCAM-1XBET
View Torrent Info: Svaha The Sixth Finger 2019 720p HDRip x264-Tv21
View Torrent Info: 90ml (2019) Tamil Pre DVDRip x264 AAC  Team DRSD
View Torrent Info: Trading Paint (2019)  WEBRip   720p   YTS   YIFY
View Torrent Info: Stay Awesome, China! (2019)  WEBRip   720p   YTS   YIFY
View Torrent Info:  The Dude In Me 2019 720p HDRip 850MB Ganool
Hot torrents
TV Torrents
View Torrent Info: Naked and Afraid S10E18 1080p WEB x264-TBS
View Torrent Info: Fear the Walking Dead S05E04 XviD-AFG TGx  ⭐
View Torrent Info: Ancient Aliens S14E04 The Star Gods of Sirius 720p WEB x265 AAC-Dr3adLoX
View Torrent Info: Elementary S07E05 (1080p AMZN WEB-DL x265 HEVC 10bit AC3 5 1 Qman)  UTR
View Torrent Info: Ghost Adventures S19E03 Mount Wilson Ranch 1080p WEB x264-CAFFEiNE
View Torrent Info: Drunk History S06E09 WEB x264-TBS TGx  ⭐
View Torrent Info: The 100 S06E07 iNTERNAL 720p WEB h264-BAMBOOZLE  eztv
View Torrent Info: Wentworth S07E04 720p HDTV x264-AU  eztv
View Torrent Info: Fear the Walking Dead S05E03 Humbugs Gulch 720p HDTV x264-CRiMSON
View Torrent Info: Mysteries At The Museum S23E06 Jolly Jane Challenger Disaster and Attack of the Bunnyman 720p HDTV x264-W4F
ExtraTorrents > Categories > TV torrents > HD torrents


Browse TV torrents

Game of Thrones S08E06 1080p HEVC x265 - 685 MB


Download torrent: Game of Thrones S08E06 1080p HEVC x265 - 685 MB Magnet link Game of Thrones S08E06 1080p HEVC x265 - 685 MB Game of Thrones S08E06 1080p HEVC x265 - 685 MB | if not working, try instead: Magnet Link
Info hash: EE72440FECAED84228C8B0F45C4CD1880874016B
Category: Categories > TV torrents > HD torrents
Trackers:
10    View all torrent trackers >
Health:
 seeds: 45 ,  leechers: 14
Torrent language: English
Total Size: 685.5 MB
Uploader:
Torrent added: 2019-05-20 12:07
Game of Thrones S08E06 1080p HEVC x265 - 685 MB

Download Game of Thrones S08E06 1080p HEVC x265 - 685 MB torrent if not working, try downloading torrent using Download Game of Thrones S08E06 1080p HEVC x265 - 685 MB via Magnet Link




Torrent Description





Game of Thrones S08E06 1080p HEVC x265 - 685 MB


























Media Information


IMDB : https://www.imdb.com/title/tt0944947/




General


Format                      : Matroska
Format version              : Version 4 / Version 2
File size                   : 686 MiB
Duration                    : 1 h 19 min
Overall bit rate            : 1 207 kb/s
Movie name                  : Visit : Filmmaza.org
Encoded date                : UTC 2019-05-20 02:44:02
Writing application         : mkvmerge v20.0.0 ('I Am The Sun') 64-bit
Writing library             : libebml v1.3.5 + libmatroska v1.4.8 / Lavf58.27.102


Video


ID                          : 1
Format                      : HEVC
Format/Info                 : High Efficiency Video Coding
Format profile              : Main [email protected]@Main
Codec ID                    : V_MPEGH/ISO/HEVC
Duration                    : 1 h 19 min
Bit rate                    : 565 kb/s
Width                       : 1 920 pixels
Height                      : 1 080 pixels
Display aspect ratio        : 16:9
Frame rate mode             : Constant
Frame rate                  : 23.976 (24000/1001) FPS
Color space                 : YUV
Chroma subsampling          : 4:2:0
Bit depth                   : 10 bits
Bits/(Pixel*Frame)          : 0.011
Stream size                 : 321 MiB (47%)
Title                       : Filmmaza.org
Writing library             : x265 3.0_Au+18-768ab38fd5fd:[Windows][GCC 8.3.1][64 bit] 10bit
Encoding settings           : cpuid=1111039 / frame-threads=3 / numa-pools=8 / wpp / no-pmode / no-pme / no-psnr / no-ssim / log-level=2 / input-csp=1 / input-res=1920x1080 / interlace=0 / total-frames=0 / level-idc=0 / high-tier=1 / uhd-bd=0 / ref=1 / no-allow-non-conformance / no-repeat-headers / annexb / no-aud / no-hrd / info / hash=0 / no-temporal-layers / open-gop / min-keyint=23 / keyint=250 / gop-lookahead=0 / bframes=3 / b-adapt=0 / b-pyramid / bframe-bias=0 / rc-lookahead=5 / lookahead-slices=6 / scenecut=0 / radl=0 / no-splice / no-intra-refresh / ctu=32 / min-cu-size=16 / no-rect / no-amp / max-tu-size=32 / tu-inter-depth=1 / tu-intra-depth=1 / limit-tu=0 / rdoq-level=0 / dynamic-rd=0.00 / no-ssim-rd / no-signhide / no-tskip / nr-intra=0 / nr-inter=0 / no-constrained-intra / strong-intra-smoothing / max-merge=2 / limit-refs=0 / no-limit-modes / me=0 / subme=0 / merange=57 / temporal-mvp / no-weightp / no-weightb / no-analyze-src-pics / deblock=0:0 / no-sao / no-sao-non-deblock / rd=2 / early-skip / rskip / fast-intra / no-tskip-fast / no-cu-lossless / no-b-intra / no-splitrd-skip / rdpenalty=0 / psy-rd=2.00 / psy-rdoq=0.00 / no-rd-refine / no-lossless / cbqpoffs=0 / crqpoffs=0 / rc=crf / crf=23.0 / qcomp=0.60 / qpstep=4 / stats-write=0 / stats-read=0 / ipratio=1.40 / pbratio=1.30 / aq-mode=1 / aq-strength=0.00 / cutree / zone-count=0 / no-strict-cbr / qg-size=32 / no-rc-grain / qpmax=69 / qpmin=0 / no-const-vbv / sar=1 / overscan=0 / videoformat=5 / range=0 / colorprim=2 / transfer=2 / colormatrix=2 / chromaloc=0 / display-window=0 / max-cll=0,0 / min-luma=0 / max-luma=1023 / log2-max-poc-lsb=8 / vui-timing-info / vui-hrd-info / slices=1 / no-opt-qp-pps / no-opt-ref-list-length-pps / no-multi-pass-opt-rps / scenecut-bias=0.05 / no-opt-cu-delta-qp / no-aq-motion / no-hdr / no-hdr-opt / no-dhdr10-opt / no-idr-recovery-sei / analysis-reuse-level=5 / scale-factor=0 / refine-intra=0 / refine-inter=0 / refine-mv=0 / refine-ctu-distortion=0 / no-limit-sao / ctu-info=0 / no-lowpass-dct / refine-analysis-type=0 / copy-pic=1 / max-ausize-factor=1.0 / no-dynamic-refine / no-single-sei / no-hevc-aq / no-svt / qp-adaptation-range=1.00
Language                    : English
Default                     : Yes
Forced                      : Yes


Audio


ID                          : 2
Format                      : E-AC-3
Format/Info                 : Enhanced Audio Coding 3
Codec ID                    : A_EAC3
Duration                    : 1 h 19 min
Bit rate mode               : Constant
Bit rate                    : 640 kb/s
Channel(s)                  : 6 channels
Channel positions           : Front: L C R, Side: L R, LFE
Sampling rate               : 48.0 kHz
Frame rate                  : 187.500 FPS (256 SPF)
Compression mode            : Lossy
Delay relative to video     : 30 ms
Stream size                 : 364 MiB (53%)
Title                       : Filmmaza.org
Language                    : English
Service kind                : Complete Main
Default                     : Yes
Forced                      : Yes


Text #1


ID                          : 3
Format                      : ASS
Codec ID                    : S_TEXT/ASS
Codec ID/Info               : Advanced Sub Station Alpha
Duration                    : 1 h 17 min
Bit rate                    : 52 b/s
Count of elements           : 629
Compression mode            : Lossless
Stream size                 : 30.1 KiB (0%)
Title                       : Filmmaza.org
Writing library             : Lavc58.51.100 ssa
Language                    : English
Default                     : No
Forced                      : No


Text #2


ID                          : 4
Format                      : UTF-8
Codec ID                    : S_TEXT/UTF8
Codec ID/Info               : UTF-8 Plain Text
Duration                    : 1 h 18 min
Bit rate                    : 0 b/s
Count of elements           : 7
Stream size                 : 466 Bytes (0%)
Title                       : Filmmaza.org
Default                     : Yes
Forced                      : Yes








Download Game of Thrones S08E06 1080p HEVC x265 - 685 MB torrent




Home - Cpasbien - Browse Torrents ExtraTorrents is in compliance with copyrights
2006-2018 ExtraTorrents