ExtraTorrents - The Largest Bittorent System Login   |    Register
Most searched
Hot torrents
Movie Torrents
View Torrent Info: 377 AB Normal 2019 1080p HD Hindi Tamil Telugu MalayalamKannada x264 1 7GB MB
View Torrent Info: Romang (2019) 720p HDRip x264 Ganool
View Torrent Info: A Resistance 2019 720p HDRip x264 AAC-Tv21
View Torrent Info: The Trap 2019 1080p NF WEB-DL DD5 1 H264-CMRG TGx
View Torrent Info: Unplanned 2019 720p HDCAM-1XBET
View Torrent Info: Svaha The Sixth Finger 2019 720p HDRip x264-Tv21
View Torrent Info: 90ml (2019) Tamil Pre DVDRip x264 AAC  Team DRSD
View Torrent Info: Trading Paint (2019)  WEBRip   720p   YTS   YIFY
View Torrent Info: Stay Awesome, China! (2019)  WEBRip   720p   YTS   YIFY
View Torrent Info:  The Dude In Me 2019 720p HDRip 850MB Ganool
Hot torrents
TV Torrents
View Torrent Info: Ancient Aliens S14E04 The Star Gods of Sirius 720p WEB x265 AAC-Dr3adLoX
View Torrent Info: Elementary S07E05 (1080p AMZN WEB-DL x265 HEVC 10bit AC3 5 1 Qman)  UTR
View Torrent Info: Ghost Adventures S19E03 Mount Wilson Ranch 1080p WEB x264-CAFFEiNE
View Torrent Info: Drunk History S06E09 WEB x264-TBS TGx  ⭐
View Torrent Info: The 100 S06E07 iNTERNAL 720p WEB h264-BAMBOOZLE  eztv
View Torrent Info: Wentworth S07E04 720p HDTV x264-AU  eztv
View Torrent Info: Fear the Walking Dead S05E03 Humbugs Gulch 720p HDTV x264-CRiMSON
View Torrent Info: Marvels Agents of S H I E L D S06E05 iNTERNAL 720p WEB h264-BAMBOOZLE  eztv
View Torrent Info: Ancient Aliens S14E03 720p WEB h264-TBS  eztv
View Torrent Info: Mysteries At The Museum S23E06 Jolly Jane Challenger Disaster and Attack of the Bunnyman 720p HDTV x264-W4F
ExtraTorrents > Categories > Documentaries torrents > Documentary torrents


Browse Documentaries torrents

Planet Earth S01e01-11 [Mux 1080p - H265 - Ita AC3 5.1 Eng Aac - SoftSub Ita Eng] [TNT Village] Bdrip-Mux


Download torrent: Planet Earth S01e01-11 [Mux 1080p - H265 - Ita AC3 5.1 Eng Aac - SoftSub Ita Eng] [TNT Village] Bdrip-Mux Magnet link Planet Earth S01e01-11 [Mux 1080p - H265 - Ita AC3 5.1 Eng Aac - SoftSub Ita Eng] [TNT Village] Bdrip-Mux Planet Earth S01e01-11 [Mux 1080p - H265 - Ita AC3 5.1 Eng Aac - SoftSub Ita Eng] [TNT Village] Bdrip-Mux | if not working, try instead: Magnet Link
Info hash: E6CBB1477B2879FB344F1CA6D72A5B1C1651665D
Category: Categories > Documentaries torrents > Documentary torrents
Trackers:
9    View all torrent trackers >
Health:
 seeds: 44 ,  leechers: 21
Torrent language: English
Total Size: 11.6 GB
Uploader:
Torrent added: 2019-06-08 11:07

Download Planet Earth S01e01-11 [Mux 1080p - H265 - Ita AC3 5.1 Eng Aac - SoftSub Ita Eng] [TNT Village] Bdrip-Mux torrent if not working, try downloading torrent using Download Planet Earth S01e01-11 [Mux 1080p - H265 - Ita AC3 5.1 Eng Aac - SoftSub Ita Eng] [TNT Village] Bdrip-Mux via Magnet Link




Torrent Description

Planet Earth S01e01-11 [Mux 1080p - H265 - Ita AC3 5.1 Eng Aac - SoftSub Ita Eng] [TNT Village] Bdrip-Mux





Titolo originale: Planet Earth
Regia: Alastair Fothergill
Produzione: BBC Natural History Unit, Discovery Channel, NHK
Anno: 2006
Durata: 50 min (episodio), 10 min (extra)
Genere: documentario


.: TRAMA :.



Planet Earth (Pianeta Terra) è una serie di documentari prodotta dalla BBC e Discovery Channel in 5 anni e pubblicata nel 2006. Ogni episodio tratta una determinata questione riguardante il nostro fantastico pianeta, partendo dall'ambiente, alla natura ed alle specie di animali a rischio di estinzione.

Nella release ci sono anche gli extra di ogni episodio (l'ultimo screenshot), che riguardano le difficoltà incontrate durante le riprese.


.: PLOT :.



Planet Earth is a nature documentary series produced by the BBC and Discovery Channel in 5 years and published in 2006. Every episode treats a determined question regarding our fantastic planet, departing from the environment, to the nature and the kinds of animals to risk of extinction.  
   
In the release there are also the extras of each episode (last screenshot), that concern the difficulties of filming the series.








.: Technical data :.



General
Unique ID                                : 321592212906406518656997910985065204900 (0xF1F06842F74D095D8F6BEE15C4458CA4)
Complete name                            : 1x01 - Da polo a polo.mkv
Format                                   : Matroska
Format version                           : Version 4
File size                                : 893 MiB
Duration                                 : 49 min 15 s
Overall bit rate                         : 2 536 kb/s
Encoded date                             : UTC 2019-05-29 21:55:04
Writing application                      : mkvmerge v34.0.0 ('Sight and Seen') 64-bit
Writing library                          : libebml v1.3.7 + libmatroska v1.5.0

Video
ID                                       : 1
Format                                   : HEVC
Format/Info                              : High Efficiency Video Coding
Format profile                           : Main [email protected]@Main
Codec ID                                 : V_MPEGH/ISO/HEVC
Duration                                 : 49 min 4 s
Bit rate                                 : 2 093 kb/s
Width                                    : 1 920 pixels
Height                                   : 1 080 pixels
Display aspect ratio                     : 16:9
Frame rate mode                          : Constant
Frame rate                               : 25.000 FPS
Original frame rate                      : 23.976 (24000/1001) FPS
Color space                              : YUV
Chroma subsampling                       : 4:2:0
Bit depth                                : 10 bits
Bits/(Pixel*Frame)                       : 0.040
Stream size                              : 735 MiB (82%)
Writing library                          : x265 1.9+200-6098ba3e0cf16b11:[Windows][GCC 5.3.0][64 bit] 10bit
Encoding settings                        : wpp / ctu=64 / min-cu-size=8 / max-tu-size=32 / tu-intra-depth=1 / tu-inter-depth=1 / me=1 / subme=2 / merange=57 / no-rect / no-amp / max-merge=2 / temporal-mvp / no-early-skip / recursion-skip / rdpenalty=0 / no-tskip / no-tskip-fast / strong-intra-smoothing / no-lossless / no-cu-lossless / no-constrained-intra / no-fast-intra / open-gop / no-temporal-layers / interlace=0 / keyint=250 / min-keyint=23 / scenecut=40 / rc-lookahead=20 / lookahead-slices=6 / bframes=4 / bframe-bias=0 / b-adapt=2 / ref=3 / limit-refs=3 / no-limit-modes / weightp / no-weightb / aq-mode=1 / qg-size=32 / aq-strength=1.00 / cbqpoffs=0 / crqpoffs=0 / rd=3 / psy-rd=2.00 / rdoq-level=0 / psy-rdoq=0.00 / no-rd-refine / signhide / deblock=0:0 / sao / no-sao-non-deblock / b-pyramid / cutree / no-intra-refresh / rc=2 / pass / bitrate=2007 / qcomp=0.60 / qpmin=0 / qpmax=51 / qpstep=4 / cplxblur=20.0 / qblur=0.5 / ipratio=1.40 / pbratio=1.30
Default                                  : Yes
Forced                                   : No

Audio #1
ID                                       : 2
Format                                   : AC-3
Format/Info                              : Audio Coding 3
Commercial name                          : Dolby Digital
Codec ID                                 : A_AC3
Duration                                 : 49 min 14 s
Bit rate mode                            : Constant
Bit rate                                 : 320 kb/s
Channel(s)                               : 6 channels
Channel layout                           : L R C LFE Ls Rs
Sampling rate                            : 48.0 kHz
Frame rate                               : 31.250 FPS (1536 SPF)
Bit depth                                : 16 bits
Compression mode                         : Lossy
Stream size                              : 113 MiB (13%)
Title                                    : ITA
Language                                 : Italian
Service kind                             : Complete Main
Default                                  : Yes
Forced                                   : No

Audio #2
ID                                       : 3
Format                                   : AAC LC
Format/Info                              : Advanced Audio Codec Low Complexity
Codec ID                                 : A_AAC-2
Duration                                 : 49 min 15 s
Bit rate                                 : 128 kb/s
Channel(s)                               : 2 channels
Channel layout                           : L R
Sampling rate                            : 48.0 kHz
Frame rate                               : 46.875 FPS (1024 SPF)
Compression mode                         : Lossy
Stream size                              : 45.1 MiB (5%)
Title                                    : ENG
Language                                 : English
Default                                  : No
Forced                                   : No

Text #1
ID                                       : 4
Format                                   : UTF-8
Codec ID                                 : S_TEXT/UTF8
Codec ID/Info                            : UTF-8 Plain Text
Duration                                 : 47 min 25 s
Bit rate                                 : 51 b/s
Count of elements                        : 349
Stream size                              : 18.0 KiB (0%)
Title                                    : ITA
Language                                 : Italian
Default                                  : No
Forced                                   : No

Text #2
ID                                       : 5
Format                                   : UTF-8
Codec ID                                 : S_TEXT/UTF8
Codec ID/Info                            : UTF-8 Plain Text
Duration                                 : 47 min 22 s
Bit rate                                 : 42 b/s
Count of elements                        : 285
Stream size                              : 14.6 KiB (0%)
Title                                    : ENG
Language                                 : English
Default                                  : No
Forced                                   : No


Download Planet Earth S01e01-11 [Mux 1080p - H265 - Ita AC3 5.1 Eng Aac - SoftSub Ita Eng] [TNT Village] Bdrip-Mux torrent




Home - Cpasbien - Browse Torrents ExtraTorrents is in compliance with copyrights
2006-2018 ExtraTorrents