ExtraTorrents - The Largest Bittorent System Login   |    Register
Most searched
Hot torrents
Movie Torrents
View Torrent Info: 377 AB Normal 2019 1080p HD Hindi Tamil Telugu MalayalamKannada x264 1 7GB MB
View Torrent Info: Romang (2019) 720p HDRip x264 Ganool
View Torrent Info: A Resistance 2019 720p HDRip x264 AAC-Tv21
View Torrent Info: The Trap 2019 1080p NF WEB-DL DD5 1 H264-CMRG TGx
View Torrent Info: Unplanned 2019 720p HDCAM-1XBET
View Torrent Info: Svaha The Sixth Finger 2019 720p HDRip x264-Tv21
View Torrent Info: 90ml (2019) Tamil Pre DVDRip x264 AAC  Team DRSD
View Torrent Info: Trading Paint (2019)  WEBRip   720p   YTS   YIFY
View Torrent Info: Stay Awesome, China! (2019)  WEBRip   720p   YTS   YIFY
View Torrent Info:  The Dude In Me 2019 720p HDRip 850MB Ganool
Hot torrents
TV Torrents
View Torrent Info: Family Guy S18E07 720p WEB x265-MiNX TGx  ⭐
View Torrent Info: Supergirl S05E07 480p x264-mSD  eztv
View Torrent Info: Mr Robot S04E07 WEB x264-XLF TGx  ⭐
View Torrent Info: Shark Tank S11E08 720p HDTV x264-CROOKS  eztv
View Torrent Info: Silicon Valley S06E04 WEB h264-TBS ettv
View Torrent Info: Ray Donovan S07E01 WEB h264-TBS  eztv
View Torrent Info: Ancient Aliens S14E20 WEB h264-TBS TGx  ⭐
View Torrent Info: The Walking Dead S10E07 720p WEB x265-MiNX TGx  ⭐
View Torrent Info: Blue Bloods S10E08 HDTV x264-SVA  eztv
View Torrent Info: Mysteries At The Museum S23E06 Jolly Jane Challenger Disaster and Attack of the Bunnyman 720p HDTV x264-W4F
ExtraTorrents > Categories > Anime torrents > Subbed torrents


Browse Anime torrents

Mangaka-san to Assistant-san to The Animation+Specals_(BD720p_10Bit_HEVC_SmoodFlamez)


Download torrent: Mangaka-san to Assistant-san to The Animation+Specals_(BD720p_10Bit_HEVC_SmoodFlamez) Magnet link Mangaka-san to Assistant-san to The Animation+Specals_(BD720p_10Bit_HEVC_SmoodFlamez) Mangaka-san to Assistant-san to The Animation+Specals_(BD720p_10Bit_HEVC_SmoodFlamez) | if not working, try instead: Magnet Link
Info hash: A615B6DF5006D295C31C73670D8A3B314D9FEDDB
Category: Categories > Anime torrents > Subbed torrents
Trackers:
4    View all torrent trackers >
Health:
 seeds: 4 ,  leechers: 4
Torrent language: Japanese
Total Size: 1.5 GB
Uploader:
Torrent added: 2019-06-17 01:09

Download Mangaka-san to Assistant-san to The Animation+Specals_(BD720p_10Bit_HEVC_SmoodFlamez) torrent if not working, try downloading torrent using Download Mangaka-san to Assistant-san to The Animation+Specals_(BD720p_10Bit_HEVC_SmoodFlamez) via Magnet Link




Torrent Description

Title
Mangaka-san to Assistant-san to The Animation

Source
Noem-light


Storyline
Manga author Yuuki Aito is an incredibly perverted man whose main loves and desires is to love everyone close to him and draw panties. His assistant, Ashisu, is constantly put into awkward situations and is forced to cope with Aito's shenanigans.

Details
Genres: Animation | Comedy
Language: Japanese
Release Date: 7 April 2014 (Japan) See more »
Also Known As: The Comic Artist and Assistants


---------------------------------------------------------------------------------------------------------------------


MediaInfo
Video
ID : 1
Format : HEVC
Format/Info : High Efficiency Video Coding
Format profile : Main [email protected]@High
Codec ID : V_MPEGH/ISO/HEVC
Width : 1 280 pixels
Height : 720 pixels
Display aspect ratio : 16:9
Frame rate mode : Constant
Frame rate : 23.976 (24000/1001) FPS
Color space : YUV
Chroma subsampling : 4:2:0
Bit depth : 10 bits

Audio
ID : 2
Format : AAC LC SBR
Format/Info : Advanced Audio Codec Low Complexity with Spectral Band Replication
Commercial name : HE-AAC
Format settings : Explicit
Codec ID : A_AAC-2
Channel(s) : 2 channels
Channel layout : L R
Sampling rate : 96.0 kHz
Delay relative to video : 17 ms
Stream size : 7.55 MiB (9%)
Title : Stereo
Language : Japanese
Default : Yes
Forced : No

Text
ID : 3
Format : ASS
Codec ID : S_TEXT/ASS
Codec ID/Info : Advanced Sub Station Alphas
Stream size : 287 KiB (0%)
Language : English
Default : No
Forced : No

--------------------------------------------------------------------------------------------------

Screenshots


Download Mangaka-san to Assistant-san to The Animation+Specals_(BD720p_10Bit_HEVC_SmoodFlamez) torrent




ExtraTorrent - Cpasbien - LibertVF - LibertyLand- HDS- Zone telechargement- Torrent9
2006-2019 ExtraTorrents