ExtraTorrents - The Largest Bittorent System Login   |    Register
Most searched
Hot torrents
Movie Torrents
View Torrent Info: 377 AB Normal 2019 1080p HD Hindi Tamil Telugu MalayalamKannada x264 1 7GB MB
View Torrent Info: Romang (2019) 720p HDRip x264 Ganool
View Torrent Info: A Resistance 2019 720p HDRip x264 AAC-Tv21
View Torrent Info: The Trap 2019 1080p NF WEB-DL DD5 1 H264-CMRG TGx
View Torrent Info: Unplanned 2019 720p HDCAM-1XBET
View Torrent Info: Svaha The Sixth Finger 2019 720p HDRip x264-Tv21
View Torrent Info: 90ml (2019) Tamil Pre DVDRip x264 AAC  Team DRSD
View Torrent Info: Trading Paint (2019)  WEBRip   720p   YTS   YIFY
View Torrent Info: Stay Awesome, China! (2019)  WEBRip   720p   YTS   YIFY
View Torrent Info:  The Dude In Me 2019 720p HDRip 850MB Ganool
Hot torrents
TV Torrents
View Torrent Info: Deadliest Catch S15E17 Unholy Alliance 720p AMZN WEB-DL DDP2 0 H 264-NTb TGx  ⭐
View Torrent Info: Ancient Aliens S14E11 The Trans-Dimensionals 720p WEB x265 AAC-Dr3adLoX
View Torrent Info: Fear the Walking Dead s05e10 720p WEB x264-worldmkv
View Torrent Info: Elementary S07E13 iNTERNAL 720p WEB x264-BAMBOOZLE  eztv
View Torrent Info: Impractical Jokers S08E12 HDTV WebRip allone
View Torrent Info: Queen of the South S04E11 XviD-AFG TGx  ⭐
View Torrent Info: Younger S06E09 720p WEB x264-TBS  eztv
View Torrent Info: Suits S09E05 XviD-AFG TGx  ⭐
View Torrent Info: Squidbillies S12E01 Forever Autumn 720p HDTV x264-CRiMSON  eztv
View Torrent Info: Mysteries At The Museum S23E06 Jolly Jane Challenger Disaster and Attack of the Bunnyman 720p HDTV x264-W4F
ExtraTorrents > Categories > TV torrents > HD torrents


Browse TV torrents

Fear.the.Walking.Dead.S05E03.Humbugs.Gulch.720p.HDTV.x264-CRiMSON


Download torrent: Fear.the.Walking.Dead.S05E03.Humbugs.Gulch.720p.HDTV.x264-CRiMSON Magnet link Fear.the.Walking.Dead.S05E03.Humbugs.Gulch.720p.HDTV.x264-CRiMSON Fear.the.Walking.Dead.S05E03.Humbugs.Gulch.720p.HDTV.x264-CRiMSON | if not working, try instead: Magnet Link
Info hash: 098A26F1905D44C32E7DD7130D567EC599E831B7
Category: Categories > TV torrents > HD torrents
Trackers:
3    View all torrent trackers >
Health:
 seeds: 1 ,  leechers: 2
Torrent language: English
Total Size: 1.3 GB
Uploader:
Torrent added: 2019-06-18 01:11
Fear.the.Walking.Dead.S05E03.Humbugs.Gulch.720p.HDTV.x264-CRiMSON

Download Fear.the.Walking.Dead.S05E03.Humbugs.Gulch.720p.HDTV.x264-CRiMSON torrent if not working, try downloading torrent using Download Fear.the.Walking.Dead.S05E03.Humbugs.Gulch.720p.HDTV.x264-CRiMSON via Magnet Link




Torrent Description

Fear.the.Walking.Dead.S05E03.Humbugs.Gulch.720p.HDTV.x264-CRiMSON
https://www.imdb.com/title/tt3743822/


Mediainfo:

Video:
Format : AVC
Duration : 45 min 6 s
Bit rate : 3 786 kb/s
Width : 1 280 pixels
Height : 720 pixels
Frame rate : 23.976 (24000/1001) FPS
Stream size : 1.19 GiB (91%)

Audio:
Format : AC-3
Duration : 45 min 6 s
Bit rate : 384 kb/s
Channel(s) : 6 channels
Stream size : 124 MiB (9%)


Screenshots:



Download Fear.the.Walking.Dead.S05E03.Humbugs.Gulch.720p.HDTV.x264-CRiMSON torrent




Home - Cpasbien - Browse Torrents ExtraTorrents is in compliance with copyrights
2006-2018 ExtraTorrents