ExtraTorrents - The Largest Bittorent System Login   |    Register
Most searched
Hot torrents
Movie Torrents
View Torrent Info: 377 AB Normal 2019 1080p HD Hindi Tamil Telugu MalayalamKannada x264 1 7GB MB
View Torrent Info: Romang (2019) 720p HDRip x264 Ganool
View Torrent Info: A Resistance 2019 720p HDRip x264 AAC-Tv21
View Torrent Info: The Trap 2019 1080p NF WEB-DL DD5 1 H264-CMRG TGx
View Torrent Info: Unplanned 2019 720p HDCAM-1XBET
View Torrent Info: Svaha The Sixth Finger 2019 720p HDRip x264-Tv21
View Torrent Info: 90ml (2019) Tamil Pre DVDRip x264 AAC  Team DRSD
View Torrent Info: Trading Paint (2019)  WEBRip   720p   YTS   YIFY
View Torrent Info: Stay Awesome, China! (2019)  WEBRip   720p   YTS   YIFY
View Torrent Info:  The Dude In Me 2019 720p HDRip 850MB Ganool
Hot torrents
TV Torrents
View Torrent Info: Tosh 0 S11E019 HDTV WebRip allone
View Torrent Info: NCIS New Orleans S06E07 1080p HDTV x264-LucidTV TGx  ⭐
View Torrent Info: NCIS S17E07 1080p HDTV x264-LucidTV TGx  ⭐
View Torrent Info: Mr Robot S04E06 406 Not Acceptable 1080p AMZN WEB-DL DDP5 1 H 264-NTG TGx  ⭐
View Torrent Info: Family Guy S18E06 720p WEB x265-MiNX TGx  ⭐
View Torrent Info: Silicon Valley S06E03 480p x264-mSD  eztv
View Torrent Info: Supergirl S05E06 720p HDTV x264-KILLERS  eztv
View Torrent Info: The Walking Dead S10E06 720p WEB x265-MiNX TGx  ⭐
View Torrent Info: Bering Sea Gold S11E09 WEB x264-TBS  eztv
View Torrent Info: Mysteries At The Museum S23E06 Jolly Jane Challenger Disaster and Attack of the Bunnyman 720p HDTV x264-W4F
ExtraTorrents > Categories > Anime torrents > Subbed torrents


Browse Anime torrents

Inou-Battle wa Nichijou-kei no Naka de_(BD720p_HEVC_10bit_SmoodFlamez)


Download torrent: Inou-Battle wa Nichijou-kei no Naka de_(BD720p_HEVC_10bit_SmoodFlamez) Magnet link Inou-Battle wa Nichijou-kei no Naka de_(BD720p_HEVC_10bit_SmoodFlamez) Inou-Battle wa Nichijou-kei no Naka de_(BD720p_HEVC_10bit_SmoodFlamez) | if not working, try instead: Magnet Link
Info hash: 69E675BA12B904F20D9E392B4A91D134F6D7114A
Category: Categories > Anime torrents > Subbed torrents
Trackers:
4    View all torrent trackers >
Health:
 seeds: 0 ,  leechers: 0
Torrent language: Japanese
Total Size: 1.3 GB
Uploader:
Torrent added: 2019-07-14 11:07

Download Inou-Battle wa Nichijou-kei no Naka de_(BD720p_HEVC_10bit_SmoodFlamez) torrent if not working, try downloading torrent using Download Inou-Battle wa Nichijou-kei no Naka de_(BD720p_HEVC_10bit_SmoodFlamez) via Magnet Link




Torrent Description

Title
Inou-Battle wa Nichijou-kei no Naka de

Source
SallySubs

Synopsis
During a Literature Club meeting, the four club members—along with their faculty adviser’s niece—suddenly find themselves with supernatural powers. Now capable of fabricating black flames, resident chuunibyou Jurai Andou is the most ecstatic about their new abilities; unfortunately, his own is only for show and unable to accomplish anything of substance. Moreover, he is completely outclassed by those around him: fellow club member Tomoyo Kanzaki manipulates time, Jurai’s childhood friend Hatoko Kushikawa wields control over the five elements, club president Sayumi Takanashi can repair both inanimate objects and living things, and their adviser’s niece Chifuyu Himeki is able to create objects out of thin air.

However, while the mystery of why they received these powers looms overhead, very little has changed for the Literature Club. The everyday lives of these five superpowered students continue on, albeit now tinged with the supernatural.

Information
Type: TV
Episodes: 12
Status: Finished Airing
Aired: Oct 7, 2014 to Dec 23, 2014
Premiered: Fall 2014
Broadcast: Tuesdays at 02:05 (JST)
Producers: TV Tokyo, Sotsu, Half H.P Studio, Ultra Super Pictures, DIVE II Entertainment, Avex Pictures
Licensors: Sentai Filmworks
Studios: Trigger
Source: Light novel
Genres: Harem, Slice of Life, Comedy, Supernatural, Romance, School
Duration: 24 min. per ep.
Rating: PG-13 - Teens 13 or older

MediaInfo
Video
ID : 1
Format : HEVC
Format/Info : High Efficiency Video Coding
Format profile : Main [email protected]@High
Codec ID : V_MPEGH/ISO/HEVC
Duration : 23 min 57 s
Bit rate : 480 kb/s
Width : 1 280 pixels
Height : 720 pixels
Display aspect ratio : 16:9
Frame rate mode : Constant
Frame rate : 23.976 (24000/1001) FPS
Color space : YUV
Chroma subsampling : 4:2:0
Bit depth : 10 bits

Audio
ID : 2
Format : AAC LC
Format/Info : Advanced Audio Codec Low Complexity
Codec ID : A_AAC-2
Duration : 23 min 56 s
Bit rate : 80.0 kb/s
Channel(s) : 2 channels
Channel layout : L R
Sampling rate : 96.0 kHz
Frame rate : 93.750 FPS (1024 SPF)
Compression mode : Lossy
Delay relative to video : 9 ms
Stream size : 13.7 MiB (14%)
Default : Yes
Forced : No

Text
ID : 3
Format : ASS
Codec ID : S_TEXT/ASS
Codec ID/Info : Advanced Sub Station Alpha
Duration : 23 min 54 s
Bit rate : 338 b/s
Count of elements : 698
Compression mode : Lossless
Stream size : 59.2 KiB (0%)
Default : No
Forced : Yes

==================================================================

Screenshots




I DO NOT OWN A SEEDBOX SO THE TORRENTS LIFE DEPENDS ON YOU!


Download Inou-Battle wa Nichijou-kei no Naka de_(BD720p_HEVC_10bit_SmoodFlamez) torrent




ExtraTorrent - Cpasbien - LibertVF - LibertyLand- HDS- Zone telechargement- Torrent9
2006-2019 ExtraTorrents