ExtraTorrents - The Largest Bittorent System Login   |    Register
Most searched
Hot torrents
Movie Torrents
View Torrent Info: 377 AB Normal 2019 1080p HD Hindi Tamil Telugu MalayalamKannada x264 1 7GB MB
View Torrent Info: Romang (2019) 720p HDRip x264 Ganool
View Torrent Info: A Resistance 2019 720p HDRip x264 AAC-Tv21
View Torrent Info: The Trap 2019 1080p NF WEB-DL DD5 1 H264-CMRG TGx
View Torrent Info: Unplanned 2019 720p HDCAM-1XBET
View Torrent Info: Svaha The Sixth Finger 2019 720p HDRip x264-Tv21
View Torrent Info: 90ml (2019) Tamil Pre DVDRip x264 AAC  Team DRSD
View Torrent Info: Trading Paint (2019)  WEBRip   720p   YTS   YIFY
View Torrent Info: Stay Awesome, China! (2019)  WEBRip   720p   YTS   YIFY
View Torrent Info:  The Dude In Me 2019 720p HDRip 850MB Ganool
Hot torrents
TV Torrents
View Torrent Info: Supergirl S05E09 iNTERNAL 720p WEB h264-TRUMP  eztv
View Torrent Info: Silicon Valley S06E07 WEB h264-TBS ettv
View Torrent Info: Mr Robot S04E10 1080p WEB h264-TRUMP TGx  ⭐
View Torrent Info: Ray Donovan S07E04 WEB h264-TBS TGx  ⭐
View Torrent Info: Blue Bloods S10E10 HDTV x264-SVA TGx  ⭐
View Torrent Info: The Blacklist S07E09 480p x264-mSD  eztv
View Torrent Info: Gold Rush S10E09 REPACK WEBRip x264-TBS  eztv
View Torrent Info: The Carbonaro Effect S05E04 WEB x264-TBS ettv
View Torrent Info: Mom S07E09 XviD-AFG TGx  ⭐
View Torrent Info: Mysteries At The Museum S23E06 Jolly Jane Challenger Disaster and Attack of the Bunnyman 720p HDTV x264-W4F
ExtraTorrents > Categories > TV torrents > HEVC/x265 torrents


Browse TV torrents

Archer S10E07 (1080p AMZN WEB-DL x265 HEVC 10bit AAC 5.1 Joy) [UTR]


Download torrent: Archer S10E07 (1080p AMZN WEB-DL x265 HEVC 10bit AAC 5.1 Joy) [UTR] Magnet link Archer S10E07 (1080p AMZN WEB-DL x265 HEVC 10bit AAC 5.1 Joy) [UTR] Archer S10E07 (1080p AMZN WEB-DL x265 HEVC 10bit AAC 5.1 Joy) [UTR] | if not working, try instead: Magnet Link
Info hash: 34547BE5BD3E5831F96FF21FA5948C29DF73AEBF
Category: Categories > TV torrents > HEVC/x265 torrents
Trackers:
9    View all torrent trackers >
Health:
 seeds: 42 ,  leechers: 8
Torrent language: English
Total Size: 208.1 MB
Uploader:
Torrent added: 2019-07-21 11:05
Archer S10E07 (1080p AMZN WEB-DL x265 HEVC 10bit AAC 5.1 Joy) [UTR]

Download Archer S10E07 (1080p AMZN WEB-DL x265 HEVC 10bit AAC 5.1 Joy) [UTR] torrent if not working, try downloading torrent using Download Archer S10E07 (1080p AMZN WEB-DL x265 HEVC 10bit AAC 5.1 Joy) [UTR] via Magnet Link




Torrent Description







Media Information

Media Information

Code:

General
Format : Matroska
Format version : Version 4 / Version 2
File size : 208 MiB
Duration : 21 min 9 s
Overall bit rate : 1 375 kb/s
Movie name : Archer S10E07 Space Pirates (1080p x265 10bit Joy)[UTR]
Encoded date : UTC 2019-07-19 21:05:57
Writing application : mkvmerge v34.0.0 ('Sight and Seen') 64-bit
Writing library : libebml v1.3.7 + libmatroska v1.5.0
Writing frontend : StaxRip v2.0.2.0, a JoyBell Encode

Video
ID : 1
Format : HEVC
Format/Info : High Efficiency Video Coding
Format profile : Main [email protected]@Main
Codec ID : V_MPEGH/ISO/HEVC
Duration : 21 min 9 s
Bit rate : 1 201 kb/s
Width : 1 920 pixels
Height : 1 080 pixels
Display aspect ratio : 16:9
Frame rate mode : Constant
Frame rate : 23.976 (24000/1001) FPS
Color space : YUV
Chroma subsampling : 4:2:0
Bit depth : 10 bits
Bits/(Pixel*Frame) : 0.024
Stream size : 182 MiB (87%)
Writing library : x265 3.0_Au+24-4217e691387c:[Windows][GCC 9.1.1][64 bit] 10bit
Encoding settings : rc=abr / bitrate=1200 / qcomp=0.60 / qpstep=4 / stats-write=0 / stats-read=2 / cplxblur=20.0 / qblur=0.5 / qpmax=69 / qpmin=0 / no-lossless / no-cu-lossless / no-hevc-aq / no-aq-motion / aq-mode=2 / aq-strength=0.40 / cbqpoffs=0 / crqpoffs=0 / ipratio=1.40 / pbratio=1.30 / psy-rd=0.00 / psy-rdoq=1.00 / deblock=1:1 / ref=4 / limit-refs=3 / limit-modes / bframes=8 / b-adapt=2 / bframe-bias=20 / b-pyramid / no-b-intra / weightp / no-weightb / keyint=250 / min-keyint=23 / rc-lookahead=80 / gop-lookahead=0 / scenecut=40 / scenecut-bias=0.05 / ctu=64 / min-cu-size=8 / me=3 / subme=7 / merange=57 / rd=4 / no-rd-refine / ssim-rd / dynamic-rd=0.00 / rdoq-level=2 / rdpenalty=0 / cutree / sao / limit-sao / no-sao-non-deblock / rect / no-amp / open-gop / max-tu-size=32 / tu-inter-depth=1 / tu-intra-depth=1 / limit-tu=0 / qg-size=32 / wpp / no-pmode / no-pme / no-psnr / ssim / no-tskip / constrained-intra / strong-intra-smoothing / max-merge=5 / nr-intra=0 / nr-inter=0 / input-csp=1 / input-res=1920x1080 / interlace=0 / total-frames=30432 / level-idc=0 / high-tier=1cpuid=1111039 / frame-threads=3 / numa-pools=12 / log-level=2 / uhd-bd=0 / lookahead-slices=4 / radl=0 / no-splice / no-intra-refresh / signhide / temporal-mvp / no-analyze-src-pics / no-early-skip / rskip / no-fast-intra / no-tskip-fast / no-splitrd-skip / zone-count=0 / no-strict-cbr / no-rc-grain / no-const-vbv / no-allow-non-conformance / no-repeat-headers / annexb / no-aud / no-hrd / info / hash=0 / no-temporal-layers / sar=0 / overscan=0 / videoformat=5 / range=0 / colorprim=2 / transfer=2 / colormatrix=1 / chromaloc=0 / display-window=0 / max-cll=0,0 / min-luma=0 / max-luma=1023 / log2-max-poc-lsb=8 / vui-timing-info / vui-hrd-info / slices=1 / no-opt-qp-pps / no-opt-ref-list-length-pps / multi-pass-opt-rps / no-opt-cu-delta-qp / no-hdr / no-hdr-opt / no-dhdr10-opt / no-idr-recovery-sei / analysis-reuse-level=10 / scale-factor=0 / refine-intra=0 / refine-inter=0 / refine-mv=0 / refine-ctu-distortion=0 / ctu-info=0 / no-lowpass-dct / refine-analysis-type=0 / copy-pic=1 / max-ausize-factor=1.0 / no-dynamic-refine / no-single-sei / no-svt / qp-adaptation-range=1.00
Default : Yes
Forced : No
Color range : Limited
Matrix coefficients : BT.709

Audio
ID : 2
Format : AAC
Format/Info : Advanced Audio Codec
Format profile : HE-AAC / LC
Codec ID : A_AAC
Duration : 21 min 9 s
Bit rate : 172 kb/s
Channel(s) : 6 channels
Channel positions : Front: L C R, Side: L R, LFE
Sampling rate : 48.0 kHz / 24.0 kHz
Frame rate : 23.438 FPS (1024 spf)
Compression mode : Lossy
Delay relative to video : 31 ms
Stream size : 26.0 MiB (13%)
Language : English
Default : No
Forced : No

Subtitle
ID : 3
Format : UTF-8
Codec ID : S_TEXT/UTF8
Codec ID/Info : UTF-8 Plain Text
Duration : 21 min 7 s
Bit rate : 115 b/s
Count of elements : 542
Stream size : 17.9 KiB (0%)
Language : English
Default : No
Forced : No



Source Information

Code:

Release: Archer.2009.S10E07.Space.Pirates.1080p.AMZN.WEB-DL.DDP5.1.H.264-NTb.mkv (961.76 MBs)


Code:


Note From UTR
We have no issue with individuals posting or re-uploading our torrents on a platform we aren't on. However, if this is something you'd like to do, please do so in a 'as-is' format. We ask that you do not create a new torrent, include all descriptions you see above including the UTR logo, tags, notes and screenshots. If you'd like to become a permanent poster on a website we don't post to, feel free to get in contact with a UniTeam member.

If possible please donate: BTC 1QA5fum5AyXvWzdVCkQzUNvw3Ef15fHRaR






Download Archer S10E07 (1080p AMZN WEB-DL x265 HEVC 10bit AAC 5.1 Joy) [UTR] torrent




ExtraTorrent - Cpasbien - LibertVF - LibertyLand- HDS- Zone telechargement- Torrent9
2006-2019 ExtraTorrents