ExtraTorrents - The Largest Bittorent System Login   |    Register
Most searched
Hot torrents
Movie Torrents
View Torrent Info: 377 AB Normal 2019 1080p HD Hindi Tamil Telugu MalayalamKannada x264 1 7GB MB
View Torrent Info: Romang (2019) 720p HDRip x264 Ganool
View Torrent Info: A Resistance 2019 720p HDRip x264 AAC-Tv21
View Torrent Info: The Trap 2019 1080p NF WEB-DL DD5 1 H264-CMRG TGx
View Torrent Info: Unplanned 2019 720p HDCAM-1XBET
View Torrent Info: Svaha The Sixth Finger 2019 720p HDRip x264-Tv21
View Torrent Info: 90ml (2019) Tamil Pre DVDRip x264 AAC  Team DRSD
View Torrent Info: Trading Paint (2019)  WEBRip   720p   YTS   YIFY
View Torrent Info: Stay Awesome, China! (2019)  WEBRip   720p   YTS   YIFY
View Torrent Info:  The Dude In Me 2019 720p HDRip 850MB Ganool
Hot torrents
TV Torrents
View Torrent Info: Ancient Aliens S14E11 The Trans-Dimensionals 720p WEB x265 AAC-Dr3adLoX
View Torrent Info: Fear the Walking Dead s05e10 720p WEB x264-worldmkv
View Torrent Info: Elementary S07E13 iNTERNAL 720p WEB x264-BAMBOOZLE  eztv
View Torrent Info: Impractical Jokers S08E12 HDTV WebRip allone
View Torrent Info: Queen of the South S04E11 XviD-AFG TGx  ⭐
View Torrent Info: Younger S06E09 720p WEB x264-TBS  eztv
View Torrent Info: Suits S09E05 XviD-AFG TGx  ⭐
View Torrent Info: Squidbillies S12E02 Galvin 720p HDTV x264-CRiMSON  eztv
View Torrent Info: Squidbillies S12E01 Forever Autumn 720p HDTV x264-CRiMSON  eztv
View Torrent Info: Mysteries At The Museum S23E06 Jolly Jane Challenger Disaster and Attack of the Bunnyman 720p HDTV x264-W4F
ExtraTorrents > Categories > TV torrents > HEVC/x265 torrents


Browse TV torrents

Suits S09E04 (1080p NF WEB-DL x265 HEVC 10bit AC3 5.1 Qman) [UTR]


Download torrent: Suits S09E04 (1080p NF WEB-DL x265 HEVC 10bit AC3 5.1 Qman) [UTR] Magnet link Suits S09E04 (1080p NF WEB-DL x265 HEVC 10bit AC3 5.1 Qman) [UTR] Suits S09E04 (1080p NF WEB-DL x265 HEVC 10bit AC3 5.1 Qman) [UTR] | if not working, try instead: Magnet Link
Info hash: 8E527C782E2BB47C5D227E34852D3CA8979416BD
Category: Categories > TV torrents > HEVC/x265 torrents
Trackers:
5    View all torrent trackers >
Health:
 seeds: 22 ,  leechers: 7
Torrent language: English
Total Size: 757.1 MB
Uploader:
Torrent added: 2019-08-12 11:03
Suits S09E04 (1080p NF WEB-DL x265 HEVC 10bit AC3 5.1 Qman) [UTR]

Download Suits S09E04 (1080p NF WEB-DL x265 HEVC 10bit AC3 5.1 Qman) [UTR] torrent if not working, try downloading torrent using Download Suits S09E04 (1080p NF WEB-DL x265 HEVC 10bit AC3 5.1 Qman) [UTR] via Magnet Link




Torrent Description








Media Information

Media Information

Code:

General
Format : Matroska
Format version : Version 4 / Version 2
File size : 757 MiB
Duration : 42 min 16 s
Overall bit rate : 2 504 kb/s
Encoded date : UTC 2019-08-11 02:56:36
Writing application : mkvmerge v30.1.0 ('Forever And More') 64-bit
Writing library : libebml v1.3.6 + libmatroska v1.4.9

Video
ID : 1
Format : HEVC
Format/Info : High Efficiency Video Coding
Format profile : Main [email protected]@Main
Codec ID : V_MPEGH/ISO/HEVC
Duration : 42 min 16 s
Bit rate : 1 862 kb/s
Width : 1 920 pixels
Height : 1 080 pixels
Display aspect ratio : 16:9
Frame rate mode : Constant
Frame rate : 23.976 (24000/1001) FPS
Color space : YUV
Chroma subsampling : 4:2:0
Bit depth : 10 bits
Bits/(Pixel*Frame) : 0.037
Stream size : 563 MiB (74%)
Writing library : x265 3.1+8-21db162c8622:[Windows][MSVC 1921][64 bit] 10bit
Encoding settings : cpuid=1111039 / frame-threads=2 / numa-pools=4 / wpp / no-pmode / no-pme / no-psnr / no-ssim / log-level=2 / input-csp=1 / input-res=1920x1080 / interlace=0 / total-frames=60805 / level-idc=0 / high-tier=1 / uhd-bd=0 / ref=4 / no-allow-non-conformance / no-repeat-headers / annexb / no-aud / no-hrd / info / hash=0 / no-temporal-layers / open-gop / min-keyint=23 / keyint=250 / gop-lookahead=0 / bframes=8 / b-adapt=2 / b-pyramid / bframe-bias=0 / rc-lookahead=50 / lookahead-slices=4 / scenecut=40 / radl=0 / no-splice / no-intra-refresh / ctu=64 / min-cu-size=8 / no-rect / no-amp / max-tu-size=32 / tu-inter-depth=1 / tu-intra-depth=1 / limit-tu=0 / rdoq-level=2 / dynamic-rd=0.00 / no-ssim-rd / signhide / no-tskip / nr-intra=0 / nr-inter=0 / no-constrained-intra / no-strong-intra-smoothing / max-merge=3 / limit-refs=3 / limit-modes / me=3 / subme=3 / merange=57 / temporal-mvp / no-hme / weightp / no-weightb / no-analyze-src-pics / deblock=1:1 / no-sao / no-sao-non-deblock / rd=4 / no-early-skip / no-rskip / no-fast-intra / no-tskip-fast / no-cu-lossless / no-b-intra / no-splitrd-skip / rdpenalty=0 / psy-rd=1.40 / psy-rdoq=1.00 / no-rd-refine / no-lossless / cbqpoffs=0 / crqpoffs=0 / rc=crf / crf=21.0 / qcomp=0.60 / qpstep=4 / stats-write=0 / stats-read=0 / ipratio=1.40 / pbratio=1.30 / aq-mode=2 / aq-strength=1.00 / cutree / zone-count=0 / no-strict-cbr / qg-size=32 / no-rc-grain / qpmax=69 / qpmin=0 / no-const-vbv / sar=0 / overscan=0 / videoformat=5 / range=0 / colorprim=2 / transfer=2 / colormatrix=2 / chromaloc=0 / display-window=0cll=0,0 / min-luma=0 / max-luma=1023 / log2-max-poc-lsb=8 / vui-timing-info / vui-hrd-info / slices=1 / no-opt-qp-pps / no-opt-ref-list-length-pps / no-multi-pass-opt-rps / scenecut-bias=0.05 / no-opt-cu-delta-qp / no-aq-motion / no-hdr / no-hdr-opt / no-dhdr10-opt / no-idr-recovery-sei / analysis-reuse-level=5 / scale-factor=0 / refine-intra=0 / refine-inter=0 / refine-mv=0 / refine-ctu-distortion=0 / no-limit-sao / ctu-info=0 / no-lowpass-dct / refine-analysis-type=0 / copy-pic=1 / max-ausize-factor=1.0 / no-dynamic-refine / no-single-sei / no-hevc-aq / no-svt / no-field / qp-adaptation-range=1.00
Language : English
Default : Yes
Forced : No

Audio
ID : 2
Format : E-AC-3
Format/Info : Enhanced Audio Coding 3
Format settings, Endianness : Big
Codec ID : A_EAC3
Duration : 42 min 16 s
Bit rate mode : Constant
Bit rate : 640 kb/s
Channel(s) : 6 channels
Channel positions : Front: L C R, Side: L R, LFE
Sampling rate : 48.0 kHz
Frame rate : 187.500 FPS (256 spf)
Compression mode : Lossy
Stream size : 194 MiB (26%)
Language : English
Default : Yes
Forced : No

Subtitle
ID : 3
Format : UTF-8
Codec ID : S_TEXT/UTF8
Codec ID/Info : UTF-8 Plain Text
Duration : 42 min 8 s
Bit rate : 115 b/s
Count of elements : 989
Stream size : 35.8 KiB (0%)
Language : English
Default : Yes
Forced : No

Menu
00:00:00.000 : en:Recap start
00:00:50.593 : en:Recap end
00:05:40.334 : en:Intro start
00:06:08.660 : en:Intro end



Source Information

Code:

Release: Unknown Source/NO-GROUP



Code:


Note From UTR
We have no issue with individuals posting or re-uploading our torrents on a platform we aren't on. However, if this is something you'd like to do, please do so in a 'as-is' format. We ask that you do not create a new torrent, include all descriptions you see above including the UTR logo, tags, notes and screenshots. If you'd like to become a permanent poster on a website we don't post to, feel free to get in contact with a UniTeam member.

If possible please donate: BTC 1QA5fum5AyXvWzdVCkQzUNvw3Ef15fHRaR





Download Suits S09E04 (1080p NF WEB-DL x265 HEVC 10bit AC3 5.1 Qman) [UTR] torrent




Home - Cpasbien - Browse Torrents ExtraTorrents is in compliance with copyrights
2006-2018 ExtraTorrents