ExtraTorrents - The Largest Bittorent System Login   |    Register
Most searched
Hot torrents
Movie Torrents
View Torrent Info: 377 AB Normal 2019 1080p HD Hindi Tamil Telugu MalayalamKannada x264 1 7GB MB
View Torrent Info: Romang (2019) 720p HDRip x264 Ganool
View Torrent Info: A Resistance 2019 720p HDRip x264 AAC-Tv21
View Torrent Info: The Trap 2019 1080p NF WEB-DL DD5 1 H264-CMRG TGx
View Torrent Info: Unplanned 2019 720p HDCAM-1XBET
View Torrent Info: Svaha The Sixth Finger 2019 720p HDRip x264-Tv21
View Torrent Info: 90ml (2019) Tamil Pre DVDRip x264 AAC  Team DRSD
View Torrent Info: Trading Paint (2019)  WEBRip   720p   YTS   YIFY
View Torrent Info: Stay Awesome, China! (2019)  WEBRip   720p   YTS   YIFY
View Torrent Info:  The Dude In Me 2019 720p HDRip 850MB Ganool
Hot torrents
TV Torrents
View Torrent Info: Ridiculousness S15E06 HDTV x264-YesTV TGx  ⭐
View Torrent Info: Impractical Jokers S08E15 720p WEB x264-TBS TGx  ⭐
View Torrent Info: Suits S09E09 1080p WEB x264-TBS TGx  ⭐
View Torrent Info: Ghost Hunters S12E06 720p WEB h264-TBS TGx  ⭐
View Torrent Info: American Horror Story S09E01 HDTV x264-SVA TGx  ⭐
View Torrent Info: Tosh 0 S11E11 720p WebRip allone
View Torrent Info: Fear the Walking Dead S05E14 Today and Tomorrow 720p AMZN WEB-DL DDP5 1 H 264-NTG TGx  ⭐
View Torrent Info: The Affair S05E04 WEB H264-iNSiDiOUS ettv
View Torrent Info: Ridiculousness S15E03 HDTV x264-YesTV TGx  ⭐
View Torrent Info: Mysteries At The Museum S23E06 Jolly Jane Challenger Disaster and Attack of the Bunnyman 720p HDTV x264-W4F
ExtraTorrents > Categories > Documentaries torrents > Documentary torrents


Browse Documentaries torrents

BBC2.Lucy.Worsley's.Nights.at.the.Opera.Series.1.2017.720p.AAC


Download torrent: BBC2.Lucy.Worsley's.Nights.at.the.Opera.Series.1.2017.720p.AAC Magnet link BBC2.Lucy.Worsley's.Nights.at.the.Opera.Series.1.2017.720p.AAC BBC2.Lucy.Worsley's.Nights.at.the.Opera.Series.1.2017.720p.AAC | if not working, try instead: Magnet Link
Info hash: FCC179332AF10146F2A22404ABCFD158443EFE50
Category: Categories > Documentaries torrents > Documentary torrents
Trackers:
0    View all torrent trackers >
Health:
 seeds: 3 ,  leechers: 3
Torrent language: English
Total Size: 2 GB
Uploader:
Torrent added: 2019-09-08 11:04

Download BBC2.Lucy.Worsley's.Nights.at.the.Opera.Series.1.2017.720p.AAC torrent if not working, try downloading torrent using Download BBC2.Lucy.Worsley's.Nights.at.the.Opera.Series.1.2017.720p.AAC via Magnet Link




Torrent Description

BBC Two - Lucy Worsley's Nights at the Opera - Series 1 - 2017

Description: For centuries in western culture, opera has been the greatest show on earth. Historian Lucy Worsley explores how history and opera go hand in hand. She visits the great European cities where some of the most famous operas were written, tells the stories of the colourful characters who composed them and shows how they reflected the turbulent times they were composed in and the lives, hopes and fears of the people who lived in them.

Whilst Lucy visits the cities and European opera houses, Antonio Pappano, music director of London's Royal Opera, helps us understand some of those operas' greatest musical moments.

In the first episode, Lucy investigates four cities and four operas embedded in the cauldron of European politics between the 17th and 19th centuries. She visits Venice, where Claudio Monteverdi invented modern opera with The Coronation of Poppea, the first work which featured real historical characters that the audience could identify with. It is also one of the steamiest and sexiest operas ever written. Then to Vienna, where Mozart's subversive masterpiece The Marriage of Figaro held a mirror up to a society where the Enlightenment was beginning to break down the old feudal order, and Beethoven wrote Fidelio, an opera that embraced the French Revolutionary radical ideals of liberty, equality and brotherhood. Finally, Lucy travels to Milan, where Verdi's Slaves' Chorus in his opera Nabucco captured the hopes and dreams of the Italian people as they moved towards independence and a united nation.

In the second programme, Lucy investigates four cities in France and Germany and four operas of a new kind that swept away conventions in the 19th and early 20th centuries. They delved into the realities of people's lives and their deepest desires, especially those of women - for freedom, identity and sex. She visits Paris, where two operas captured the spirit of Bohemianism that swept the city - Bizet's Carmen, that showed the gritty realities of life for Paris's underclass and the upper classes' fear of them, and Puccini's classic opera La Boheme, about the lives and loves of a group of young people exploring the new personal and sexual freedoms available. Then to Bayreuth in Germany, where Wagner's monumental Ring Cycle set out create a 'total work of art' to that would tap into and transform German identity. Finally Lucy travels to Dresden, where Richard Strauss premiered Salome, a work that explored perverted female pleasure in a way that is still shocking even today.

IMDB: www.imdb.com/title/tt7508296/

Release: BBC2.Lucy.Worsley's.Nights.at.the.Opera.Series.1.2017.720p.AAC
Audio: English
Subtitles: Yes/English/Soft

Technical information

Episode 1 of 2

First broadcast: 14 October 2017
Duration:  ~1 hour

Media info:-
Format : MPEG-4
Format profile : Base Media
Codec ID : isom (isom/iso2/avc1/mp41)
File size : 1 014 MiB
Duration : 58mn 52s
Overall bit rate mode : Variable
Overall bit rate : 2 407 Kbps
Writing application : Lavf57.25.100

Video
ID : 1
Format : AVC
Format/Info : Advanced Video Codec
Format profile : [email protected]
Format settings, CABAC : Yes
Format settings, ReFrames : 2 frames
Codec ID : avc1
Codec ID/Info : Advanced Video Coding
Duration : 58mn 52s
Bit rate mode : Variable
Bit rate : 2 309 Kbps
Maximum bit rate : 3 500 Kbps
Width : 1 280 pixels
Height : 720 pixels
Display aspect ratio : 16:9
Frame rate mode : Constant
Frame rate : 25.000 fps
Color space : YUV
Chroma subsampling : 4:2:0
Bit depth : 8 bits
Scan type : Progressive
Bits/(Pixel*Frame) : 0.100
Stream size : 972 MiB (96%)

Audio
ID : 2
Format : AAC
Format/Info : Advanced Audio Codec
Format profile : LC
Codec ID : 40
Duration : 58mn 51s
Bit rate mode : Variable
Bit rate : 93.4 Kbps
Maximum bit rate : 127 Kbps
Channel(s) : 2 channels
Channel positions : Front: L R
Sampling rate : 48.0 KHz
Frame rate : 46.875 fps (1024 spf)
Compression mode : Lossy
Stream size : 39.3 MiB (4%)

Episode 2 of 2

First broadcast: 21 October 2017
Duration:  ~1 hour

Media info:-
General
Format : MPEG-4
Format profile : Base Media
Codec ID : isom (isom/iso2/avc1/mp41)
File size : 1 023 MiB
Duration : 58mn 54s
Overall bit rate mode : Variable
Overall bit rate : 2 428 Kbps
Writing application : Lavf57.25.100

Video
ID : 1
Format : AVC
Format/Info : Advanced Video Codec
Format profile : [email protected]
Format settings, CABAC : Yes
Format settings, ReFrames : 2 frames
Codec ID : avc1
Codec ID/Info : Advanced Video Coding
Duration : 58mn 54s
Bit rate mode : Variable
Bit rate : 2 330 Kbps
Maximum bit rate : 3 500 Kbps
Width : 1 280 pixels
Height : 720 pixels
Display aspect ratio : 16:9
Frame rate mode : Constant
Frame rate : 25.000 fps
Color space : YUV
Chroma subsampling : 4:2:0
Bit depth : 8 bits
Scan type : Progressive
Bits/(Pixel*Frame) : 0.101
Stream size : 981 MiB (96%)

Audio
ID : 2
Format : AAC
Format/Info : Advanced Audio Codec
Format profile : LC
Codec ID : 40
Duration : 58mn 53s
Bit rate mode : Variable
Bit rate : 93.4 Kbps
Maximum bit rate : 106 Kbps
Channel(s) : 2 channels
Channel positions : Front: L R
Sampling rate : 48.0 KHz
Frame rate : 46.875 fps (1024 spf)
Compression mode : Lossy
Stream size : 39.3 MiB (4%)


Download BBC2.Lucy.Worsley's.Nights.at.the.Opera.Series.1.2017.720p.AAC torrent




ExtraTorrent - Cpasbien - LibertVF - LibertyLand- HDS- Zone telechargement- Torrent9
2006-2019 ExtraTorrents