ExtraTorrents - The Largest Bittorent System Login   |    Register
Most searched
Hot torrents
Movie Torrents
View Torrent Info: 377 AB Normal 2019 1080p HD Hindi Tamil Telugu MalayalamKannada x264 1 7GB MB
View Torrent Info: Romang (2019) 720p HDRip x264 Ganool
View Torrent Info: A Resistance 2019 720p HDRip x264 AAC-Tv21
View Torrent Info: The Trap 2019 1080p NF WEB-DL DD5 1 H264-CMRG TGx
View Torrent Info: Unplanned 2019 720p HDCAM-1XBET
View Torrent Info: Svaha The Sixth Finger 2019 720p HDRip x264-Tv21
View Torrent Info: 90ml (2019) Tamil Pre DVDRip x264 AAC  Team DRSD
View Torrent Info: Trading Paint (2019)  WEBRip   720p   YTS   YIFY
View Torrent Info: Stay Awesome, China! (2019)  WEBRip   720p   YTS   YIFY
View Torrent Info:  The Dude In Me 2019 720p HDRip 850MB Ganool
Hot torrents
TV Torrents
View Torrent Info: Ridiculousness S15E06 HDTV x264-YesTV TGx  ⭐
View Torrent Info: Impractical Jokers S08E15 720p WEB x264-TBS TGx  ⭐
View Torrent Info: Suits S09E09 1080p WEB x264-TBS TGx  ⭐
View Torrent Info: Ghost Hunters S12E06 720p WEB h264-TBS TGx  ⭐
View Torrent Info: American Horror Story S09E01 HDTV x264-SVA TGx  ⭐
View Torrent Info: Tosh 0 S11E11 720p WebRip allone
View Torrent Info: Fear the Walking Dead S05E14 Today and Tomorrow 720p AMZN WEB-DL DDP5 1 H 264-NTG TGx  ⭐
View Torrent Info: The Affair S05E04 WEB H264-iNSiDiOUS ettv
View Torrent Info: Ridiculousness S15E03 HDTV x264-YesTV TGx  ⭐
View Torrent Info: Mysteries At The Museum S23E06 Jolly Jane Challenger Disaster and Attack of the Bunnyman 720p HDTV x264-W4F
ExtraTorrents > Categories > TV torrents > Divx/Xvid torrents


Browse TV torrents

Fear.The.Walking.Dead.S05E13.WEB-DL.XviD.B4ND1T69


Download torrent: Fear.The.Walking.Dead.S05E13.WEB-DL.XviD.B4ND1T69 Magnet link Fear.The.Walking.Dead.S05E13.WEB-DL.XviD.B4ND1T69 Fear.The.Walking.Dead.S05E13.WEB-DL.XviD.B4ND1T69 | if not working, try instead: Magnet Link
Info hash: 3E167B72C27F541D850BEC986040A4AC6F6B5D6C
Category: Categories > TV torrents > Divx/Xvid torrents
Trackers:
8    View all torrent trackers >
Health:
 seeds: 4 ,  leechers: 2
Torrent language: English
Total Size: 371.4 MB
Uploader:
Torrent added: 2019-09-08 11:05
Fear.The.Walking.Dead.S05E13.WEB-DL.XviD.B4ND1T69

Download Fear.The.Walking.Dead.S05E13.WEB-DL.XviD.B4ND1T69 torrent if not working, try downloading torrent using Download Fear.The.Walking.Dead.S05E13.WEB-DL.XviD.B4ND1T69 via Magnet Link




Torrent Description

Fear.The.Walking.Dead.S05E13.WEB-DL.XviD.B4ND1T69



Creators: Dave Erickson, Robert Kirkman
Stars: Kim Dickens, Frank Dillane, Cliff Curtis

Plot/Story:
Leave What You Don't
Logan's motives are revealed; Sarah, Dwight, and Luciana negotiate for the sake of the mission; Strand and Alicia race to the aid of a new survivor in a familiar place; a dangerous threat emerges.

General
Complete name : Fear.The.Walking.Dead.S05E13.WEB-DL.XviD.B4ND1T69.avi
Format : AVI
Format/Info : Audio Video Interleave
File size : 371 MiB
Duration : 45 min 39 s
Overall bit rate : 1 137 kb/s
Subtitles : Yes...Included(HI)

Video
ID : 0
Format : MPEG-4 Visual
Format profile : Advanced [email protected]
Format settings, BVOP : 2
Format settings, QPel : No
Format settings, GMC : No warppoints
Format settings, Matrix : Default (H.263)
Codec ID : XVID
Codec ID/Hint : XviD
Duration : 45 min 39 s
Bit rate : 995 kb/s
Width : 640 pixels
Height : 360 pixels
Display aspect ratio : 16:9
Frame rate : 23.976 (24000/1001) FPS
Color space : YUV
Chroma subsampling : 4:2:0
Bit depth : 8 bits
Scan type : Progressive
Compression mode : Lossy
Bits/(Pixel*Frame) : 0.180
Stream size : 325 MiB (88%)
Writing library : XviD 64

Audio
ID : 1
Format : MPEG Audio
Format version : Version 1
Format profile : Layer 3
Codec ID : 55
Codec ID/Hint : MP3
Duration : 45 min 39 s
Bit rate mode : Constant
Bit rate : 128 kb/s
Channel(s) : 2 channels
Sampling rate : 48.0 kHz
Compression mode : Lossy
Stream size : 41.8 MiB (11%)
Alignment : Aligned on interleaves
Interleave, duration : 24 ms (0.58 video frame)

Screenshots:

https://i.imgur.com/PwjEQYA.png
https://i.imgur.com/aKNnP4l.png
https://i.imgur.com/UaXiNai.png
https://i.imgur.com/afzdg6Q.png
https://i.imgur.com/YYHejRY.png






Please Seed For As Long As Possible
Or At Least 1:1 Ratio...Thanks
Enjoy Peeps


Download Fear.The.Walking.Dead.S05E13.WEB-DL.XviD.B4ND1T69 torrent




ExtraTorrent - Cpasbien - LibertVF - LibertyLand- HDS- Zone telechargement- Torrent9
2006-2019 ExtraTorrents