ExtraTorrents - The Largest Bittorent System Login   |    Register
Most searched
Hot torrents
Movie Torrents
View Torrent Info: 377 AB Normal 2019 1080p HD Hindi Tamil Telugu MalayalamKannada x264 1 7GB MB
View Torrent Info: Romang (2019) 720p HDRip x264 Ganool
View Torrent Info: A Resistance 2019 720p HDRip x264 AAC-Tv21
View Torrent Info: The Trap 2019 1080p NF WEB-DL DD5 1 H264-CMRG TGx
View Torrent Info: Unplanned 2019 720p HDCAM-1XBET
View Torrent Info: Svaha The Sixth Finger 2019 720p HDRip x264-Tv21
View Torrent Info: 90ml (2019) Tamil Pre DVDRip x264 AAC  Team DRSD
View Torrent Info: Trading Paint (2019)  WEBRip   720p   YTS   YIFY
View Torrent Info: Stay Awesome, China! (2019)  WEBRip   720p   YTS   YIFY
View Torrent Info:  The Dude In Me 2019 720p HDRip 850MB Ganool
Hot torrents
TV Torrents
View Torrent Info: Supergirl S05E09 iNTERNAL 720p WEB h264-TRUMP  eztv
View Torrent Info: Silicon Valley S06E07 WEB h264-TBS ettv
View Torrent Info: Mr Robot S04E10 1080p WEB h264-TRUMP TGx  ⭐
View Torrent Info: Ray Donovan S07E04 WEB h264-TBS TGx  ⭐
View Torrent Info: Blue Bloods S10E10 HDTV x264-SVA TGx  ⭐
View Torrent Info: The Blacklist S07E09 480p x264-mSD  eztv
View Torrent Info: Gold Rush S10E09 REPACK WEBRip x264-TBS  eztv
View Torrent Info: The Carbonaro Effect S05E04 WEB x264-TBS ettv
View Torrent Info: Mom S07E09 XviD-AFG TGx  ⭐
View Torrent Info: Mysteries At The Museum S23E06 Jolly Jane Challenger Disaster and Attack of the Bunnyman 720p HDTV x264-W4F
ExtraTorrents > Categories > Anime torrents > Dual Audio torrents


Browse Anime torrents

Bikini Warriors_(BD720p_10bit_Hevc_SmoodFlamez)


Download torrent: Bikini Warriors_(BD720p_10bit_Hevc_SmoodFlamez) Magnet link Bikini Warriors_(BD720p_10bit_Hevc_SmoodFlamez) Bikini Warriors_(BD720p_10bit_Hevc_SmoodFlamez) | if not working, try instead: Magnet Link
Info hash: 12654861E74AE2A74A29B990D663CFFD28A0F05C
Category: Categories > Anime torrents > Dual Audio torrents
Trackers:
4    View all torrent trackers >
Health:
 seeds: 0 ,  leechers: 0
Torrent language: Japanese
Total Size: 1.2 GB
Uploader:
Torrent added: 2019-10-06 11:04

Download Bikini Warriors_(BD720p_10bit_Hevc_SmoodFlamez) torrent if not working, try downloading torrent using Download Bikini Warriors_(BD720p_10bit_Hevc_SmoodFlamez) via Magnet Link




Torrent Description

Title
Bikini Warriors

Source
RH
[Mushin]
TerribleSubs

Storyline
The show is a sequence of 12 stories about the adventures of four girls. The action takes part in a fantasy world filled with monsters and bad magicians

Details
Official Sites: Fan site | Official Website
Country: Japan
Language: Japanese
Release Date: 7 July 2015 (Japan) See more »
Also Known As: Bikini Warriors

Video
ID : 1
Format : HEVC
Format/Info : High Efficiency Video Coding
Format profile : Main [email protected]@High
Codec ID : V_MPEGH/ISO/HEVC
Duration : 4 min 1 s
Bit rate : 2 350 kb/s
Width : 1 920 pixels
Height : 1 080 pixels
Display aspect ratio : 16:9
Frame rate mode : Constant
Frame rate : 23.976 (24000/1001) FPS
Color space : YUV
Chroma subsampling : 4:2:0
Bit depth : 10 bits

Audio #1
ID : 2
Format : AAC LC
Format/Info : Advanced Audio Codec Low Complexity
Codec ID : A_AAC-2
Duration : 4 min 0 s
Bit rate : 80.1 kb/s
Channel(s) : 6 channels
Channel layout : C L R Ls Rs LFE
Sampling rate : 96.0 kHz
Frame rate : 93.750 FPS (1024 SPF)
Compression mode : Lossy
Delay relative to video : 7 ms
Stream size : 2.30 MiB (3%)
Title : 5.1 AC-3
Language : English
Default : Yes
Forced : No

Audio #2
ID : 3
Format : AAC LC
Format/Info : Advanced Audio Codec Low Complexity
Codec ID : A_AAC-2
Duration : 4 min 0 s
Bit rate : 80.0 kb/s
Channel(s) : 2 channels
Channel layout : L R
Sampling rate : 96.0 kHz
Frame rate : 93.750 FPS (1024 SPF)
Compression mode : Lossy
Stream size : 2.30 MiB (3%)
Title : 2.0 AC-3
Language : Japanese
Default : No
Forced : No

Text #1
ID : 4
Format : ASS
Codec ID : S_TEXT/ASS
Codec ID/Info : Advanced Sub Station Alpha
Duration : 4 s 970 ms
Bit rate : 21.8 kb/s
Count of elements : 93
Compression mode : Lossless
Stream size : 13.2 KiB (0%)
Language : English
Default : No
Forced : Yes

Text #2
ID : 5
Format : ASS
Codec ID : S_TEXT/ASS
Codec ID/Info : Advanced Sub Station Alpha
Duration : 3 min 2 s
Bit rate : 713 b/s
Count of elements : 146
Compression mode : Lossless
Stream size : 15.9 KiB (0%)
Language : English
Default : No
Forced : No

Screenshots







Sadly I messed up when I Encoded this torrent from the resolution to it being dual audio were all mistakes


Download Bikini Warriors_(BD720p_10bit_Hevc_SmoodFlamez) torrent




ExtraTorrent - Cpasbien - LibertVF - LibertyLand- HDS- Zone telechargement- Torrent9
2006-2019 ExtraTorrents