ExtraTorrents - The Largest Bittorent System Login   |    Register
Most searched
Hot torrents
Movie Torrents
View Torrent Info: 377 AB Normal 2019 1080p HD Hindi Tamil Telugu MalayalamKannada x264 1 7GB MB
View Torrent Info: Romang (2019) 720p HDRip x264 Ganool
View Torrent Info: A Resistance 2019 720p HDRip x264 AAC-Tv21
View Torrent Info: The Trap 2019 1080p NF WEB-DL DD5 1 H264-CMRG TGx
View Torrent Info: Unplanned 2019 720p HDCAM-1XBET
View Torrent Info: Svaha The Sixth Finger 2019 720p HDRip x264-Tv21
View Torrent Info: 90ml (2019) Tamil Pre DVDRip x264 AAC  Team DRSD
View Torrent Info: Trading Paint (2019)  WEBRip   720p   YTS   YIFY
View Torrent Info: Stay Awesome, China! (2019)  WEBRip   720p   YTS   YIFY
View Torrent Info:  The Dude In Me 2019 720p HDRip 850MB Ganool
Hot torrents
TV Torrents
View Torrent Info: The Blacklist S07E02 iNTERNAL 720p WEB H264-AMRAP  eztv
View Torrent Info: Ancient Aliens S14E16 720p WEB h264-TBS  eztv
View Torrent Info: Ridiculousness S15E16 HDTV x264-YesTV  eztv
View Torrent Info: Blue Bloods S10E03 720p HDTV x264-AVS  eztv
View Torrent Info: Fresh Off the Boat S06E03 720p HDTV x265-MiNX TGx  ⭐
View Torrent Info: Impractical Jokers S08E18 720p WEB x264-TBS  eztv
View Torrent Info: How to Get Away with Murder S06E03 720p HDTV x265-MiNX TGx  ⭐
View Torrent Info: Mom S07E03 READNFO 720p WEB H264-AMCON  eztv
View Torrent Info: Ghost Hunters S12E07 WEB h264-TBS TGx  ⭐
View Torrent Info: Mysteries At The Museum S23E06 Jolly Jane Challenger Disaster and Attack of the Bunnyman 720p HDTV x264-W4F
ExtraTorrents > Categories > TV torrents > HD torrents


Browse TV torrents

Supergirl.S05E01.720p.HDTV.x264-AVS


Download torrent: Supergirl.S05E01.720p.HDTV.x264-AVS Magnet link Supergirl.S05E01.720p.HDTV.x264-AVS Supergirl.S05E01.720p.HDTV.x264-AVS | if not working, try instead: Magnet Link
Info hash: BA815AC4018FA24A262151D439E49817BF194C2D
Category: Categories > TV torrents > HD torrents
Trackers:
3    View all torrent trackers >
Health:
 seeds: 383 ,  leechers: 36
Torrent language: English
Total Size: 846.2 MB
Uploader:
Torrent added: 2019-10-08 11:03
Supergirl.S05E01.720p.HDTV.x264-AVS

Download Supergirl.S05E01.720p.HDTV.x264-AVS torrent if not working, try downloading torrent using Download Supergirl.S05E01.720p.HDTV.x264-AVS via Magnet Link




Torrent Description





Code:



Video
ID : 1
Format : AVC
Format/Info : Advanced Video Codec
Format profile : [email protected]
Format settings : CABAC / 5 Ref Frames
Format settings, CABAC : Yes
Format settings, Reference frames : 5 frames
Codec ID : V_MPEG4/ISO/AVC
Duration : 41 min 26 s
Bit rate : 2 414 kb/s
Width : 1 280 pixels
Height : 718 pixels
Display aspect ratio : 16:9
Frame rate mode : Constant
Frame rate : 23.976 (24000/1001) FPS
Color space : YUV
Chroma subsampling : 4:2:0
Bit depth : 8 bits
Scan type : Progressive
Bits/(Pixel*Frame) : 0.110
Stream size : 715 MiB (85%)
Writing library : x264 core 157 r2969 d4099dd
Encoding settings : cabac=1 / ref=5 / deblock=1:0:0 / analyse=0x3:0x113 / me=hex / subme=8 / psy=1 / psy_rd=1.00:0.00 / mixed_ref=1 / me_range=16 / chroma_me=1 / trellis=2 / 8x8dct=1 / cqm=0 / deadzone=21,11 / fast_pskip=1 / chroma_qp_offset=-2 / threads=22 / lookahead_threads=3 / sliced_threads=0 / nr=0 / decimate=1 / interlaced=0 / bluray_compat=0 / constrained_intra=0 / bframes=3 / b_pyramid=2 / b_adapt=1 / b_bias=0 / direct=3 / weightb=1 / open_gop=0 / weightp=2 / keyint=250 / keyint_min=23 / scenecut=40 / intra_refresh=0 / rc_lookahead=50 / rc=crf / mbtree=1 / crf=18.0 / qcomp=0.60 / qpmin=0 / qpmax=69 / qpstep=4 / ip_ratio=1.40 / aq=1:1.00
Default : Yes
Forced : No
Color range : Limited
Matrix coefficients : BT.709

Audio
ID : 2
Format : AC-3
Format/Info : Audio Coding 3
Commercial name : Dolby Digital
Codec ID : A_AC3
Duration : 41 min 26 s
Bit rate mode : Constant
Bit rate : 384 kb/s
Channel(s) : 6 channels
Channel layout : L R C LFE Ls Rs
Sampling rate : 48.0 kHz
Frame rate : 31.250 FPS (1536 SPF)
Bit depth : 16 bits
Compression mode : Lossy
Stream size : 114 MiB (13%)
Service kind : Complete Main
Default : Yes
Forced : No




Download Supergirl.S05E01.720p.HDTV.x264-AVS torrent




ExtraTorrent - Cpasbien - LibertVF - LibertyLand- HDS- Zone telechargement- Torrent9
2006-2019 ExtraTorrents