ExtraTorrents - The Largest Bittorent System Login   |    Register
Most searched
Hot torrents
Movie Torrents
View Torrent Info: True History of the Kelly Gang 2019 1080p WEB-DL DDP5 1 H264-CMRG TGx  ⭐
View Torrent Info: The Last Full Measure 2019 1080p WEB-DL H264 AC3-EVO TGx  ⭐
View Torrent Info: Inherit The Viper 2019 1080p WEB-DL H264 AC3-EVO TGx  ⭐
View Torrent Info: Kaptein Sabeltann og den magiske diamant 2019 NORDiC 1080p WEB-DL H 264-RAPiDCOWS EtHD
View Torrent Info: Being Frank 2019 1080p WEB-DL H264 AC3-EVO EtHD
View Torrent Info: Chhichhore (2019) 720p PreDVD Rip x264 AAC 1 2GB
View Torrent Info: Shubharathri (2019) Malayalam- 720p - DVDRip - x264 - 1 4GB - DD5 1 (224kbps) - ESub - MovCr
View Torrent Info: Warning Do Not Play 2019 720p KOR FHDRip H264 AAC-Mkvking
View Torrent Info: Expo 2019 1080p NF WEB-DL DD+2 0 H 264-KHN EtHD
View Torrent Info: Money 2019 KOREAN 1080p WEBRip HEVC x265-RMTeam
Hot torrents
TV Torrents
View Torrent Info: Silent Witness S23E07 iNTERNAL 480p x264-mSD  eztv
View Torrent Info: Top Gear S28E01 720p WEB x264-Worldmkv
View Torrent Info: Murdoch Mysteries S13E13 480p x264-mSD  eztv
View Torrent Info: Ridiculousness S16E12 Xzibit HDTV x264-CRiMSON  eztv
View Torrent Info: Supergirl S05E11 720p HDTV x264-AVS  eztv
View Torrent Info: Ancient Aliens S15E01 WEB h264-TRUMP TGx  ⭐
View Torrent Info: Fresh Off the Boat S06E12 1080p WEB H264-METCON TGx  ⭐
View Torrent Info: Gold Rush S10E15 HDTV WebRip allone
View Torrent Info: Supernatural S15E10 iNTERNAL 720p WEB h264-TRUMP  eztv
View Torrent Info: Mysteries At The Museum S23E06 Jolly Jane Challenger Disaster and Attack of the Bunnyman 720p HDTV x264-W4F
ExtraTorrents > Categories > TV torrents > HEVC/x265 torrents


Browse TV torrents

The.Expanse.S04E01.New.Terra.1080p.WEBRip.HEVC.ITA.ENG.DDP5.1.x265-BlackBit.mkv


Download torrent: The.Expanse.S04E01.New.Terra.1080p.WEBRip.HEVC.ITA.ENG.DDP5.1.x265-BlackBit.mkv Magnet link The.Expanse.S04E01.New.Terra.1080p.WEBRip.HEVC.ITA.ENG.DDP5.1.x265-BlackBit.mkv The.Expanse.S04E01.New.Terra.1080p.WEBRip.HEVC.ITA.ENG.DDP5.1.x265-BlackBit.mkv | if not working, try instead: Magnet Link
Info hash: E3475EF2CFE8F9CCFA691A214F1AC13323CA78A8
Category: Categories > TV torrents > HEVC/x265 torrents
Trackers:
10    View all torrent trackers >
Health:
 seeds: 55 ,  leechers: 10
Torrent language: Italian
Total Size: 1.2 GB
Uploader:
Torrent added: 2019-12-14 11:03
The.Expanse.S04E01.New.Terra.1080p.WEBRip.HEVC.ITA.ENG.DDP5.1.x265-BlackBit.mkv

Download The.Expanse.S04E01.New.Terra.1080p.WEBRip.HEVC.ITA.ENG.DDP5.1.x265-BlackBit.mkv torrent if not working, try downloading torrent using Download The.Expanse.S04E01.New.Terra.1080p.WEBRip.HEVC.ITA.ENG.DDP5.1.x265-BlackBit.mkv via Magnet Link




Torrent Description

THE EXPANSE - STAGIONE 4




DATI
Titolo originale The Expanse
Paese Stati Uniti d'America
Anno 2015 – in produzione
Formato serie TV
Genere drammatico, fantascienza, giallo
Stagioni 4
Episodi 46
Durata 45 min (episodio)
Lingua originale inglese
Rapporto 16:9

TRAMA
Nel XXIV secolo, il sistema solare è stato colonizzato dagli umani e si trova in una situazione di precario equilibrio geopolitico a causa delle tensioni fra la Terra e le ex-colonie marziane, oramai indipendenti sotto il vessillo della Repubblica congressuale marziana, e del degrado sociale in cui sopravvive gran parte della popolazione degli avamposti nella fascia principale degli asteroidi e sui pianeti esterni.

In questo difficile contesto, si intrecciano le vicende del detective di polizia Josephus Miller, di stanza su Cerere, a cui viene affidata l'indagine sulla scomparsa di una donna terrestre, Julie Andromeda Mao, e il secondo ufficiale del cargo porta ghiaccio Canterbury, James Holden, inavvertitamente coinvolto in un incidente che rischia di destabilizzare irreversibilmente le relazioni tra Marte e la Terra e innescare un conflitto interplanetario.

IMMAGINI






REPORT

General
Unique ID : 197174767276134177157452346822352833424 (0x94567A96673158413983E00488920B90)
Complete name : E:\Serie Tv In Corso\The Expanse S04\The.Expanse.S04E01.New.Terra.1080p.WEBRip.HEVC.ITA.ENG.DDP5.1.x265-BlackBit.mkv
Format : Matroska
Format version : Version 4
File size : 1.25 GiB
Duration : 49 min 17 s
Overall bit rate : 3 621 kb/s
Encoded date : UTC 2019-12-13 01:11:39
Writing application : mkvmerge v35.0.0 ('All The Love In The World') 64-bit
Writing library : libebml v1.3.9 + libmatroska v1.5.2

Video
ID : 6
Format : HEVC
Format/Info : High Efficiency Video Coding
Format profile : [email protected]@Main
Codec ID : V_MPEGH/ISO/HEVC
Duration : 49 min 17 s
Bit rate : 2 339 kb/s
Width : 1 920 pixels
Height : 1 080 pixels
Display aspect ratio : 16:9
Frame rate mode : Constant
Frame rate : 23.976 (24000/1001) FPS
Standard : NTSC
Color space : YUV
Chroma subsampling : 4:2:0
Bit depth : 8 bits
Bits/(Pixel*Frame) : 0.047
Stream size : 825 MiB (65%)
Default : Yes
Forced : No
Color range : Limited
Color primaries : BT.709
Transfer characteristics : BT.709
Matrix coefficients : BT.709

Audio #1
ID : 1
Format : E-AC-3
Format/Info : Enhanced AC-3
Commercial name : Dolby Digital Plus
Codec ID : A_EAC3
Duration : 49 min 17 s
Bit rate mode : Constant
Bit rate : 640 kb/s
Channel(s) : 6 channels
Channel layout : L R C LFE Ls Rs
Sampling rate : 48.0 kHz
Frame rate : 31.250 FPS (1536 SPF)
Compression mode : Lossy
Stream size : 226 MiB (18%)
Language : Italian
Service kind : Complete Main
Default : Yes
Forced : Yes

Audio #2
ID : 2
Format : E-AC-3
Format/Info : Enhanced AC-3
Commercial name : Dolby Digital Plus
Codec ID : A_EAC3
Duration : 49 min 17 s
Bit rate mode : Constant
Bit rate : 640 kb/s
Channel(s) : 6 channels
Channel layout : L R C LFE Ls Rs
Sampling rate : 48.0 kHz
Frame rate : 31.250 FPS (1536 SPF)
Compression mode : Lossy
Stream size : 226 MiB (18%)
Language : English
Service kind : Complete Main
Default : No
Forced : No

Text #1
ID : 3
Format : UTF-8
Codec ID : S_TEXT/UTF8
Codec ID/Info : UTF-8 Plain Text
Duration : 33 min 37 s
Bit rate : 2 b/s
Count of elements : 17
Stream size : 547 Bytes (0%)
Language : Italian
Default : Yes
Forced : Yes

Text #2
ID : 4
Format : UTF-8
Codec ID : S_TEXT/UTF8
Codec ID/Info : UTF-8 Plain Text
Duration : 46 min 37 s
Bit rate : 57 b/s
Count of elements : 534
Stream size : 19.5 KiB (0%)
Language : Italian
Default : No
Forced : No

Text #3
ID : 5
Format : UTF-8
Codec ID : S_TEXT/UTF8
Codec ID/Info : UTF-8 Plain Text
Duration : 47 min 6 s
Bit rate : 61 b/s
Count of elements : 765
Stream size : 21.2 KiB (0%)
Language : English
Default : No
Forced : No

CREDITI BlackBit


Download The.Expanse.S04E01.New.Terra.1080p.WEBRip.HEVC.ITA.ENG.DDP5.1.x265-BlackBit.mkv torrent




ExtraTorrent - Cpasbien - LibertVF - LibertyLand- HDS- Zone telechargement- Torrent9
2006-2019 ExtraTorrents