ExtraTorrents - The Largest Bittorent System Login   |    Register
Most searched
Hot torrents
Movie Torrents
View Torrent Info: The Last Full Measure 2019 1080p WEB-DL H264 AC3-EVO TGx  ⭐
View Torrent Info: Inherit The Viper 2019 1080p WEB-DL H264 AC3-EVO TGx  ⭐
View Torrent Info: Kaptein Sabeltann og den magiske diamant 2019 NORDiC 1080p WEB-DL H 264-RAPiDCOWS EtHD
View Torrent Info: Can You Keep A Secret 2019 1080p WEB-DL H264 AC3-EVO EtHD
View Torrent Info: Being Frank 2019 1080p WEB-DL H264 AC3-EVO EtHD
View Torrent Info: Chhichhore (2019) 720p PreDVD Rip x264 AAC 1 2GB
View Torrent Info: Shubharathri (2019) Malayalam- 720p - DVDRip - x264 - 1 4GB - DD5 1 (224kbps) - ESub - MovCr
View Torrent Info: Warning Do Not Play 2019 720p KOR FHDRip H264 AAC-Mkvking
View Torrent Info: Expo 2019 1080p NF WEB-DL DD+2 0 H 264-KHN EtHD
View Torrent Info: Money 2019 KOREAN 1080p WEBRip HEVC x265-RMTeam
Hot torrents
TV Torrents
View Torrent Info: Shameless S10E11 - Location Location Location  1080p x265 HEVC 10bit AMZN WEB-DL AAC 5 1   Prof
View Torrent Info: Shark Tank S11E12 HDTV x264-CROOKS  eztv
View Torrent Info: Supergirl S05E10 HDTV x264-KILLERS  eztv
View Torrent Info: Ray Donovan S07E10 WEB h264-TBS  eztv
View Torrent Info: Fresh Off the Boat S06E11 720p WEB H264-METCON  eztv
View Torrent Info: Gold Rush S10E14 WEBRip x264-TBS  eztv
View Torrent Info: Supernatural S15E09 720p HDTV x264-CRAVERS  eztv
View Torrent Info: Superstore S05E12 1080p HDTV x264-LucidTV TGx  ⭐
View Torrent Info: Mom S07E12 iNTERNAL 480p x264-mSD  eztv
View Torrent Info: Mysteries At The Museum S23E06 Jolly Jane Challenger Disaster and Attack of the Bunnyman 720p HDTV x264-W4F
ExtraTorrents > Categories > Documentaries torrents > Documentary torrents


Browse Documentaries torrents

Sex Explained 2020 NF Season 1 English H264 720p WEBRip - By Movieaio


Download torrent: Sex Explained 2020 NF Season 1 English H264 720p WEBRip - By Movieaio Magnet link Sex Explained 2020 NF Season 1 English H264 720p WEBRip - By Movieaio Sex Explained 2020 NF Season 1 English H264 720p WEBRip - By Movieaio | if not working, try instead: Magnet Link
Info hash: EF6044FE141AC1862B815447A739077EBA6F5E0D
Category: Categories > Documentaries torrents > Documentary torrents
Trackers:
14    View all torrent trackers >
Health:
 seeds: 25 ,  leechers: 6
Torrent language: English
Total Size: 841.6 MB
Uploader:
Torrent added: 2020-01-08 11:02

Download Sex Explained 2020 NF Season 1 English H264 720p WEBRip - By Movieaio torrent if not working, try downloading torrent using Download Sex Explained 2020 NF Season 1 English H264 720p WEBRip - By Movieaio via Magnet Link




Torrent Description

Quote:

Sex Explained 2020 NF Season 1 English H264 720p WEBRip - By Movieaio





Telegram - Movieaio



About File -



General
Complete name : [Telegram - Movieaio] Sex Explained 2020 NF English H264 720p WEBRip S01E01.mkv
Format : Matroska
Format version : Version 4
File size : 161 MiB
Duration : 18 min 55 s
Overall bit rate : 1 191 kb/s
Movie name : Telegram ~ Movieaio
Encoded date : UTC 2020-01-07 05:35:47
Writing application : mkvmerge v42.0.0 ('Overtime') 64-bit
Writing library : libebml v1.3.10 + libmatroska v1.5.2 / Lavf58.29.100

Video
ID : 1
Format : AVC
Format/Info : Advanced Video Codec
Format profile : [email protected]
Format settings : CABAC / 4 Ref Frames
Format settings, CABAC : Yes
Format settings, Reference frames : 4 frames
Codec ID : V_MPEG4/ISO/AVC
Duration : 18 min 55 s
Bit rate : 1 123 kb/s
Width : 1 280 pixels
Height : 720 pixels
Display aspect ratio : 16:9
Frame rate mode : Variable
Frame rate : 23.976 (23976/1000) FPS
Color space : YUV
Chroma subsampling : 4:2:0
Bit depth : 8 bits
Scan type : Progressive
Bits/(Pixel*Frame) : 0.051
Stream size : 148 MiB (92%)
Title : Telegram ~ Movieaio
Writing library : x264 core 157
Language : English
Default : Yes
Forced : No

Audio
ID : 2
Format : AAC LC
Format/Info : Advanced Audio Codec Low Complexity
Codec ID : A_AAC-2
Duration : 18 min 55 s
Bit rate : 96.0 kb/s
Channel(s) : 1 channel
Channel layout : C
Sampling rate : 44.1 kHz
Frame rate : 43.066 FPS (1024 SPF)
Compression mode : Lossy
Stream size : 13.0 MiB (8%)
Title : Telegram ~ Movieaio
Writing library : Lavc58.54.100 libfdk_aac
Language : English
Default : Yes
Forced : No

Text
ID : 3
Format : ASS
Codec ID : S_TEXT/ASS
Codec ID/Info : Advanced Sub Station Alpha
Duration : 18 min 6 s
Bit rate : 195 b/s
Count of elements : 365
Compression mode : Lossless
Stream size : 25.9 KiB (0%)
Title : Telegram ~ Movieaio
Writing library : Lavc58.54.100 ssa
Language : English
Default : No
Forced : No








Quote:

Poster :




Quote:

Screenshots :











Thanks for the download

Dont Forget to seed As much you Download

- Movieaio



Download Sex Explained 2020 NF Season 1 English H264 720p WEBRip - By Movieaio torrent




ExtraTorrent - Cpasbien - LibertVF - LibertyLand- HDS- Zone telechargement- Torrent9
2006-2019 ExtraTorrents