ExtraTorrents - The Largest Bittorent System Login   |    Register
Most searched
Hot torrents
Movie Torrents
View Torrent Info: Promare (2019) + Extras (1080p BluRay x265 HEVC 10bit DTS 5 1 Japanese SAMPA)  QxR
View Torrent Info: Come To Daddy 2019 1080p WEB-DL DD5 1 H264-FGT
View Torrent Info: Marshal (2019) Hindi Dubbed 720p HDTVRip x264  1 3 GB  AAC - UncutHD (Shadow)
View Torrent Info: Mr Jones 2019 1080p WEB-DL H264 AC3-EVO TGx  ⭐
View Torrent Info: Elsewhere (2019)  720p   WEBRip   YTS   YIFY
View Torrent Info: Coda (2019)  720p   WEBRip   YTS   YIFY
View Torrent Info: True History of the Kelly Gang 2019 1080p WEB-DL DDP5 1 H264-CMRG TGx  ⭐
View Torrent Info: The Last Full Measure 2019 1080p WEB-DL H264 AC3-EVO TGx  ⭐
View Torrent Info: Inherit The Viper 2019 1080p WEB-DL H264 AC3-EVO TGx  ⭐
View Torrent Info: Kaptein Sabeltann og den magiske diamant 2019 NORDiC 1080p WEB-DL H 264-RAPiDCOWS EtHD
Hot torrents
TV Torrents
View Torrent Info: Gold Rush S10E18 480p x264-mSD  eztv
View Torrent Info: Blue Bloods S10E14 HDTV x264-SVA TGx  ⭐
View Torrent Info: Strike Back S08E01 720p WEB H264-XLF  eztv
View Torrent Info: Outlander S05E01 720p WEB H264-GHOSTS TGx  ⭐
View Torrent Info: Superstore S05E15 1080p WEB x264-XLF TGx  ⭐
View Torrent Info: Impractical Jokers S08E23 HDTV WebRip allone
View Torrent Info: Mom S07E15 WEB x264-XLF ettv
View Torrent Info: Ridiculousness S16E23 Chanel and Sterling CLXXVIII HDTV x264-CRiMSON TGx  ⭐
View Torrent Info: Chicago PD S07E14 720p HDTV x264-AVS TGx  ⭐
View Torrent Info: Criminal Minds S15E08 HDTV x264-SVA  eztv
ExtraTorrents > Categories > TV torrents > HEVC/x265 torrents


Browse TV torrents

Shameless S10E11 - Location Location Location [1080p x265 HEVC 10bit AMZN WEB-DL AAC 5.1] [Prof]


Download torrent: Shameless S10E11 - Location Location Location [1080p x265 HEVC 10bit AMZN WEB-DL AAC 5.1] [Prof] Magnet link Shameless S10E11 - Location Location Location [1080p x265 HEVC 10bit AMZN WEB-DL AAC 5.1] [Prof] Shameless S10E11 - Location Location Location [1080p x265 HEVC 10bit AMZN WEB-DL AAC 5.1] [Prof] | if not working, try instead: Magnet Link
Info hash: 054C622E76EAF437E33B19D9B040A0968438EC24
Category: Categories > TV torrents > HEVC/x265 torrents
Trackers:
7    View all torrent trackers >
Health:
 seeds: 20 ,  leechers: 6
Torrent language: English
Total Size: 1.9 GB
Uploader:
Torrent added: 2020-01-22 11:03
Shameless S10E11 - Location Location Location [1080p x265 HEVC 10bit AMZN WEB-DL AAC 5.1] [Prof]

Download Shameless S10E11 - Location Location Location [1080p x265 HEVC 10bit AMZN WEB-DL AAC 5.1] [Prof] torrent if not working, try downloading torrent using Download Shameless S10E11 - Location Location Location [1080p x265 HEVC 10bit AMZN WEB-DL AAC 5.1] [Prof] via Magnet Link




Torrent Description



A scrappy, feisty, fiercely loyal Chicago family makes no apologies.

Creators: Paul Abbott, John Wells
Stars: Emmy Rossum, William H. Macy, Ethan Cutkosky

IMDB







Format : Matroska
Format version : Version 4
File size : 1.86 GiB
Duration : 56 min 20 s
Overall bit rate : 4 739 kb/s
Encoded date : UTC 2020-01-21 03:45:57
Writing application : mkvmerge v35.0.0 ('All The Love In The World') 64-bit
Writing library : libebml v1.3.9 + libmatroska v1.5.2

Video
ID : 1
Format : HEVC
Format/Info : High Efficiency Video Coding
Format profile : Main [email protected]@Main
Codec ID : V_MPEGH/ISO/HEVC
Duration : 56 min 20 s
Bit rate : 4 144 kb/s
Width : 1 920 pixels
Height : 1 080 pixels
Display aspect ratio : 16:9
Frame rate mode : Constant
Frame rate : 23.976 (24000/1001) FPS
Color space : YUV
Chroma subsampling : 4:2:0
Bit depth : 10 bits
Bits/(Pixel*Frame) : 0.083
Stream size : 1.63 GiB (87%)
Writing library : x265 3.2.1+3-b4b2ecac21f6:[Windows][MSVC 1924][64 bit] 10bit
Encoding settings : cpuid=1111039 / frame-threads=2 / numa-pools=4 / wpp / no-pmode / no-pme / no-psnr / no-ssim / log-level=2 / input-csp=1 / input-res=1920x1080 / interlace=0 / total-frames=81048 / level-idc=0 / high-tier=1 / uhd-bd=0 / ref=3 / no-allow-non-conformance / no-repeat-headers / annexb / no-aud / no-hrd / info / hash=0 / no-temporal-layers / open-gop / min-keyint=23 / keyint=250 / gop-lookahead=0 / bframes=8 / b-adapt=2 / b-pyramid / bframe-bias=0 / rc-lookahead=80 / lookahead-slices=6 / scenecut=40 / radl=0 / no-splice / no-intra-refresh / ctu=64 / min-cu-size=8 / no-rect / no-amp / max-tu-size=32 / tu-inter-depth=1 / tu-intra-depth=1 / limit-tu=0 / rdoq-level=2 / dynamic-rd=0.00 / no-ssim-rd / signhide / no-tskip / nr-intra=0 / nr-inter=0 / no-constrained-intra / strong-intra-smoothing / max-merge=2 / limit-refs=1 / no-limit-modes / me=1 / subme=2 / merange=57 / temporal-mvp / no-hme / weightp / no-weightb / no-analyze-src-pics / deblock=0:0 / sao / no-sao-non-deblock / rd=3 / selective-sao=4 / early-skip / rskip / no-fast-intra / no-tskip-fast / no-cu-lossless / b-intra / no-splitrd-skip / rdpenalty=0 / psy-rd=0.30 / psy-rdoq=1.00 / no-rd-refine / no-lossless / cbqpoffs=0 / crqpoffs=0 / rc=crf / crf=20.0 / qcomp=0.60 / qpstep=4 / stats-write=0 / stats-read=0 / ipratio=1.40 / pbratio=1.30 / aq-mode=3 / aq-strength=1.00 / cutree / zone-count=0 / no-strict-cbr / qg-size=32 / no-rc-grain / qpmax=69 / qpmin=0 / no-const-vbv / sar=0 / overscan=0 / videoformat=5 / range=0 / colorprim=2 / transfer=2 / colormatrix=2 / chromaloc=0 / display-window=0 / cll=0,0 / min-luma=0 / max-luma=1023 / log2-max-poc-lsb=8 / vui-timing-info / vui-hrd-info / slices=1 / no-opt-qp-pps / no-opt-ref-list-length-pps / no-multi-pass-opt-rps / scenecut-bias=0.05 / no-opt-cu-delta-qp / no-aq-motion / no-hdr / no-hdr-opt / no-dhdr10-opt / no-idr-recovery-sei / analysis-reuse-level=5 / scale-factor=0 / refine-intra=0 / refine-inter=0 / refine-mv=1 / refine-ctu-distortion=0 / no-limit-sao / ctu-info=0 / no-lowpass-dct / refine-analysis-type=0 / copy-pic=1 / max-ausize-factor=1.0 / no-dynamic-refine / no-single-sei / no-hevc-aq / no-svt / no-field / qp-adaptation-range=1.00
Default : Yes
Forced : No

Audio
ID : 2
Format : AAC LC
Format/Info : Advanced Audio Codec Low Complexity
Codec ID : A_AAC-2
Duration : 56 min 20 s
Bit rate : 592 kb/s
Channel(s) : 6 channels
Channel layout : C L R Ls Rs LFE
Sampling rate : 48.0 kHz
Frame rate : 46.875 FPS (1024 SPF)
Compression mode : Lossy
Delay relative to video : 20 ms
Stream size : 239 MiB (12%)
Language : English
Default : Yes
Forced : No

Text
ID : 3
Format : UTF-8
Codec ID : S_TEXT/UTF8
Codec ID/Info : UTF-8 Plain Text
Duration : 55 min 36 s
Bit rate : 87 b/s
Count of elements : 1227
Stream size : 35.5 KiB (0%)
Title : SDH
Language : English
Default : No
Forced : No

Source:

Shameless.US.S10E11.Location.Location.Location.1080p.AMZN.WEB-DL.DDP5.1.H.264-NTb


Download Shameless S10E11 - Location Location Location [1080p x265 HEVC 10bit AMZN WEB-DL AAC 5.1] [Prof] torrent




ExtraTorrent - Cpasbien - LibertVF - LibertyLand- HDS- Zone telechargement- Torrent9
2006-2019 ExtraTorrents