ExtraTorrents - The Largest Bittorent System Login   |    Register
Most searched
Hot torrents
Movie Torrents
View Torrent Info: Jezebel 2019 1080p NF WEBRip DDP5 1 x264-QOQ TGx  ⭐
View Torrent Info: Three Christs (2017)  720p   WEBRip   YTS   YIFY
View Torrent Info: Cleanin Up The Town Remembering Ghostbusters 2019 1080p AMZN WEBRip DDP5 1 x264-ETHiCS TGx  ⭐
View Torrent Info: Come To Daddy 2019 1080p WEB-DL DD5 1 H264-FGT
View Torrent Info: Elsewhere (2019)  720p   WEBRip   YTS   YIFY
View Torrent Info: Coda (2019)  720p   WEBRip   YTS   YIFY
View Torrent Info: True History of the Kelly Gang 2019 1080p WEB-DL DDP5 1 H264-CMRG TGx  ⭐
View Torrent Info: The Last Full Measure 2019 1080p WEB-DL H264 AC3-EVO TGx  ⭐
View Torrent Info: Inherit The Viper 2019 1080p WEB-DL H264 AC3-EVO TGx  ⭐
View Torrent Info: Kaptein Sabeltann og den magiske diamant 2019 NORDiC 1080p WEB-DL H 264-RAPiDCOWS EtHD
Hot torrents
TV Torrents
View Torrent Info: Chicago PD S07E15 WEB h264-TBS  eztv
View Torrent Info: Chicago Fire S08E15 720p WEB H264-METCON TGx  ⭐
View Torrent Info: The Flash 2014 S06E13 WEB H264-XLF TGx  ⭐
View Torrent Info: Talking Dead S09E09 WEB H264-XLF ettv
View Torrent Info: Brain Games S08E07 Rebel Wilson-Love and Attraction WEB x264-CAFFEiNE TGx  ⭐
View Torrent Info: Better Call Saul S05E02 720p WEB x265-MiNX TGx  ⭐
View Torrent Info: NCIS New Orleans S06E12 HDTV x264-SVA ettv
View Torrent Info: Family Guy S18E12 720p WEB x265-MiNX TGx  ⭐
View Torrent Info: Strike Back S08E02 WEB H264-XLF TGx  ⭐
View Torrent Info: Strike Back S08E01 720p WEB H264-XLF  eztv
ExtraTorrents > Categories > Documentaries torrents > Documentary torrents


Browse Documentaries torrents

Regiment.Diaries.S01.1080p.NF.WEB-DL.H264.AAC.DD2.0.Esubs.Exclusive - By Movieaio


Download torrent: Regiment.Diaries.S01.1080p.NF.WEB-DL.H264.AAC.DD2.0.Esubs.Exclusive - By Movieaio Magnet link Regiment.Diaries.S01.1080p.NF.WEB-DL.H264.AAC.DD2.0.Esubs.Exclusive - By Movieaio Regiment.Diaries.S01.1080p.NF.WEB-DL.H264.AAC.DD2.0.Esubs.Exclusive - By Movieaio | if not working, try instead: Magnet Link
Info hash: 7F8331F9857B5E9804D19DAF40662925FE1AD424
Category: Categories > Documentaries torrents > Documentary torrents
Trackers:
14    View all torrent trackers >
Health:
 seeds: 3 ,  leechers: 13
Torrent language: Hindi
Total Size: 14.2 GB
Uploader:
Torrent added: 2020-02-08 11:01

Download Regiment.Diaries.S01.1080p.NF.WEB-DL.H264.AAC.DD2.0.Esubs.Exclusive - By Movieaio torrent if not working, try downloading torrent using Download Regiment.Diaries.S01.1080p.NF.WEB-DL.H264.AAC.DD2.0.Esubs.Exclusive - By Movieaio via Magnet Link




Torrent Description

Quote:

[Telegram - Movieaio] Regiment.Diaries.S01.1080p.NF.WEB-DL.H264.AAC.DD2.0.Esubs.Exclusive





Telegram - Movieaio








Quote:

Poster :




Quote:










Thanks for the download

Dont Forget to seed As much you Download

- Movieaio



Code:

General
Complete name : [Telegram - Movieaio] Regiment.Diaries.S01E01.1080p.NF.WEB-DL.H264.AAC.DD2.0.Esubs.Exclusive.mkv
Format : Matroska
Format version : Version 4
File size : 1.25 GiB
Duration : 40 min 35 s
Overall bit rate : 4 410 kb/s
Encoded date : UTC 2020-02-07 11:39:51
Writing application : mkvmerge v43.0.0 ('The Quartermaster') 64-bit
Writing library : libebml v1.3.10 + libmatroska v1.5.2

Video
ID : 1
Format : AVC
Format/Info : Advanced Video Codec
Format profile : [email protected]
Format settings : CABAC / 3 Ref Frames
Format settings, CABAC : Yes
Format settings, Reference frames : 3 frames
Codec ID : V_MPEG4/ISO/AVC
Duration : 40 min 35 s
Bit rate : 4 280 kb/s
Width : 1 920 pixels
Height : 1 080 pixels
Display aspect ratio : 16:9
Frame rate mode : Constant
Frame rate : 25.000 FPS
Color space : YUV
Chroma subsampling : 4:2:0
Bit depth : 8 bits
Scan type : Progressive
Bits/(Pixel*Frame) : 0.083
Stream size : 1.21 GiB (97%)
Default : Yes
Forced : No

Audio
ID : 2
Format : AAC LC SBR
Format/Info : Advanced Audio Codec Low Complexity with Spectral Band Replication
Commercial name : HE-AAC
Format settings : Explicit
Codec ID : A_AAC-2
Duration : 40 min 35 s
Bit rate : 128 kb/s
Channel(s) : 2 channels
Channel layout : L R
Sampling rate : 48.0 kHz
Frame rate : 23.438 FPS (2048 SPF)
Compression mode : Lossy
Stream size : 37.2 MiB (3%)
Language : Hindi
Default : Yes
Forced : No

Text
ID : 3
Format : UTF-8
Codec ID : S_TEXT/UTF8
Codec ID/Info : UTF-8 Plain Text
Duration : 40 min 0 s
Bit rate : 93 b/s
Count of elements : 616
Stream size : 27.3 KiB (0%)
Language : English
Default : Yes
Forced : No


Download Regiment.Diaries.S01.1080p.NF.WEB-DL.H264.AAC.DD2.0.Esubs.Exclusive - By Movieaio torrent




ExtraTorrent - Cpasbien - LibertVF - LibertyLand- HDS- Zone telechargement- Torrent9
2006-2019 ExtraTorrents