ExtraTorrents - The Largest Bittorent System Login   |    Register
Most searched
Hot torrents
Movie Torrents
View Torrent Info: My Name Is Sara (2019)  720p   WEBRip   YTS   YIFY
View Torrent Info: Military Wives (2019)  720p   WEBRip   YTS   YIFY
View Torrent Info: Dosed 2019 1080p WEBRip AAC2 0 x264-NOGRP TGx  ⭐
View Torrent Info: Vivarium 2019 1080p WEB-DL DD5 1 H264-FGT
View Torrent Info: The Gentlemen 2020 1080p WEBRip x264 AAC 5 1-RARBG
View Torrent Info: Swallow 2019 1080p WEB-DL H264 AC3-EVO TGx  ⭐
View Torrent Info: Guns Akimbo 2019 1080p WEB-DL H264 AC3-EVO TGx  ⭐
View Torrent Info: Jezebel 2019 1080p NF WEBRip DDP5 1 x264-QOQ TGx  ⭐
View Torrent Info: Cleanin Up The Town Remembering Ghostbusters 2019 1080p AMZN WEBRip DDP5 1 x264-ETHiCS TGx  ⭐
View Torrent Info: True History of the Kelly Gang 2019 1080p WEB-DL DDP5 1 H264-CMRG TGx  ⭐
Hot torrents
TV Torrents
View Torrent Info: Better Call Saul S05E05 (1080p NF WEB-DL x265 HEVC 10bit AC3 5 1 Qman)  UTR
View Torrent Info: The Flash S06E15 720p x265-ZMNT
View Torrent Info: Supernatural S15E12 WEB H264-XLF ettv
View Torrent Info: NCIS New Orleans S06E16 iNTERNAL 720p WEB x264-TRUMP  eztv
View Torrent Info: NCIS New Orleans S06E15 720p HDTV x265-MiNX TGx  ⭐
View Torrent Info: Family Guy S18E15 720p WEB x265-MiNX TGx  ⭐
View Torrent Info: Bobs Burgers S10E16 720p WEB x265-MiNX TGx  ⭐
View Torrent Info: Strike Back S08E05 (1080p WEB-DL x265 HEVC 10bit AAC 5 1 Joy)  UTR
View Torrent Info: Homeland S08E06 WEB H264-XLF  eztv
View Torrent Info: Strike Back S08E04 WEB H264-XLF ettv
ExtraTorrents > Categories > TV torrents > HEVC/x265 torrents


Browse TV torrents

Strike Back S08E05 (1080p WEB-DL x265 HEVC 10bit AAC 5.1 Joy) [UTR]


Download torrent: Strike Back S08E05 (1080p WEB-DL x265 HEVC 10bit AAC 5.1 Joy) [UTR] Magnet link Strike Back S08E05 (1080p WEB-DL x265 HEVC 10bit AAC 5.1 Joy) [UTR] Strike Back S08E05 (1080p WEB-DL x265 HEVC 10bit AAC 5.1 Joy) [UTR] | if not working, try instead: Magnet Link
Info hash: DFDB7EEB3600F2B40DEBE82430A4790A31537998
Category: Categories > TV torrents > HEVC/x265 torrents
Trackers:
9    View all torrent trackers >
Health:
 seeds: 15 ,  leechers: 0
Torrent language: English
Total Size: 489 MB
Uploader:
Torrent added: 2020-03-16 11:05
Strike Back S08E05 (1080p WEB-DL x265 HEVC 10bit AAC 5.1 Joy) [UTR]

Download Strike Back S08E05 (1080p WEB-DL x265 HEVC 10bit AAC 5.1 Joy) [UTR] torrent if not working, try downloading torrent using Download Strike Back S08E05 (1080p WEB-DL x265 HEVC 10bit AAC 5.1 Joy) [UTR] via Magnet Link




Torrent Description



Media Information

Code:

General
Format : Matroska
Format version : Version 4 / Version 2
File size : 489 MiB
Duration : 49 min 19 s
Overall bit rate : 1 386 kb/s
Movie name : Strike.Back.S08E05.1080p.AMZN.WEB-DL.DDP5.1.H.264-NTb [1080p x265 10bit Joy][UTR]
Encoded date : UTC 2020-03-15 06:08:04
Writing application : mkvmerge v39.0.0 ('In The Waiting Line') 64-bit
Writing library : libebml v1.3.9 + libmatroska v1.5.2

Video
ID : 1
Format : HEVC
Format/Info : High Efficiency Video Coding
Format profile : Main [email protected]@Main
Codec ID : V_MPEGH/ISO/HEVC
Duration : 49 min 18 s
Bit rate : 1 201 kb/s
Width : 1 920 pixels
Height : 1 080 pixels
Display aspect ratio : 16:9
Frame rate mode : Constant
Frame rate : 23.976 (24000/1001) FPS
Color space : YUV
Chroma subsampling : 4:2:0
Bit depth : 10 bits
Bits/(Pixel*Frame) : 0.024
Stream size : 424 MiB (87%)
Writing library : x265 3.2+9-971180b100f8:[Windows][MSVC 1923][64 bit] 10bit
Encoding settings : cpuid=1111039 / frame-threads=3 / numa-pools=8 / wpp / no-pmode / no-pme / no-psnr / ssim / log-level=2 / input-csp=1 / input-res=1920x1080 / interlace=0 / total-frames=70944 / level-idc=0 / high-tier=1 / uhd-bd=0 / ref=4 / no-allow-non-conformance / no-repeat-headers / annexb / no-aud / no-hrd / info / hash=0 / no-temporal-layers / open-gop / min-keyint=23 / keyint=250 / gop-lookahead=0 / bframes=8 / b-adapt=2 / b-pyramid / bframe-bias=40 / rc-lookahead=80 / lookahead-slices=4 / scenecut=40 / radl=0 / no-splice / no-intra-refresh / ctu=64 / min-cu-size=8 / rect / no-amp / max-tu-size=32 / tu-inter-depth=1 / tu-intra-depth=1 / limit-tu=0 / rdoq-level=2 / dynamic-rd=0.00 / ssim-rd / signhide / no-tskip / nr-intra=0 / nr-inter=0 / constrained-intra / strong-intra-smoothing / max-merge=3 / limit-refs=3 / limit-modes / me=4 / subme=5 / merange=57 / temporal-mvp / no-frame-dup / no-hme / weightp / no-weightb / no-analyze-src-pics / deblock=0:0 / sao / no-sao-non-deblock / rd=4 / selective-sao=4 / early-skip / rskip / no-fast-intra / no-tskip-fast / no-cu-lossless / no-b-intra / splitrd-skip / rdpenalty=0 / psy-rd=2.50 / psy-rdoq=1.50 / no-rd-refine / no-lossless / cbqpoffs=0 / crqpoffs=0 / rc=abr / bitrate=1200 / qcomp=0.60 / qpstep=4 / stats-write=0 / stats-read=2 / cplxblur=20.0 / qblur=0.5 / ipratio=1.40 / pbratio=1.30 / aq-mode=3 / aq-strength=0.40 / cutree / zone-count=0 / no-strict-cbr / qg-size=32 / no-rc-grain / qpmax=69 / qpmin=0 / no-const-vbv / sar=0 / overscan=0 / videoformat=5 / range=0 / colorprim=2 / transfer=2 / colormatrix=2 / chromaloc=0 / display-window=0 / cll=0,0 / min-luma=0 / max-luma=1023 / log2-max-poc-lsb=8 / vui-timing-info / vui-hrd-info / slices=1 / no-opt-qp-pps / no-opt-ref-list-length-pps / multi-pass-opt-rps / scenecut-bias=0.05 / no-opt-cu-delta-qp / no-aq-motion / no-hdr / no-hdr-opt / no-dhdr10-opt / no-idr-recovery-sei / analysis-load / analysis-reuse-level=10 / scale-factor=0 / refine-intra=0 / refine-inter=0 / refine-mv=1 / refine-ctu-distortion=0 / limit-sao / ctu-info=0 / no-lowpass-dct / refine-analysis-type=0 / copy-pic=1 / max-ausize-factor=1.0 / no-dynamic-refine / no-single-sei / no-hevc-aq / no-svt / no-field / qp-adaptation-range=1.00
Default : Yes
Forced : No

Audio
ID : 2
Format : AAC
Format/Info : Advanced Audio Codec
Format profile : HE-AAC / LC
Codec ID : A_AAC
Duration : 49 min 18 s
Bit rate : 183 kb/s
Channel(s) : 6 channels
Channel positions : Front: L C R, Side: L R, LFE
Sampling rate : 48.0 kHz / 24.0 kHz
Frame rate : 23.438 FPS (1024 spf)
Compression mode : Lossy
Delay relative to video : 31 ms
Stream size : 64.6 MiB (13%)
Language : English
Default : No
Forced : No

Subtitle
ID : 3
Format : UTF-8
Codec ID : S_TEXT/UTF8
Codec ID/Info : UTF-8 Plain Text
Duration : 49 min 12 s
Bit rate : 68 b/s
Count of elements : 996
Stream size : 24.8 KiB (0%)
Title : SDH
Language : English
Default : No
Forced : No



Source Information

Code:

Release:
Strike.Back.S08E05.1080p.AMZN.WEB-DL.DDP5.1.H.264-NTb.mkv (3.43 GBs)



Code:


Note From UTR
Whilst we are happy for our releases to be re-posted on a platform we aren't on, please do so in an 'as-is' format. We ask that you do not create a new torrent, include all descriptions you see above including the UTR logo, tags, notes and screenshots. If you'd like to become a permanent poster on a website we don't post to, feel free to get in contact with a UTR member.
If possible please donate for seedboxes.
BTC - 1QA5fum5AyXvWzdVCkQzUNvw3Ef15fHRaR
Monero - 8AuksPSzY7fen3HHT1a2342PgVy4J93MKfXG3AAcayV76miTyJ3sNfn38srwrpLirGfeR5DwhTL8GW8pdQgT7bZcJ25ynMx
Dash - Xh4mNs6uwZdpCEX2HSEVwGvPD7yKxZ1Ccd
Ethereum - 0x51c06c94e74c16735a7a6e841ad29fc90a84eb1f





Download Strike Back S08E05 (1080p WEB-DL x265 HEVC 10bit AAC 5.1 Joy) [UTR] torrent




ExtraTorrent - Cpasbien - LibertVF - LibertyLand- HDS- Zone telechargement- Torrent9
2006-2019 ExtraTorrents