ExtraTorrents - The Largest Bittorent System Login   |    Register
Most searched
Hot torrents
Movie Torrents
View Torrent Info: My Name Is Sara (2019)  720p   WEBRip   YTS   YIFY
View Torrent Info: Military Wives (2019)  720p   WEBRip   YTS   YIFY
View Torrent Info: Dosed 2019 1080p WEBRip AAC2 0 x264-NOGRP TGx  ⭐
View Torrent Info: Vivarium 2019 1080p WEB-DL DD5 1 H264-FGT
View Torrent Info: The Gentlemen 2020 1080p WEBRip x264 AAC 5 1-RARBG
View Torrent Info: Swallow 2019 1080p WEB-DL H264 AC3-EVO TGx  ⭐
View Torrent Info: Guns Akimbo 2019 1080p WEB-DL H264 AC3-EVO TGx  ⭐
View Torrent Info: Jezebel 2019 1080p NF WEBRip DDP5 1 x264-QOQ TGx  ⭐
View Torrent Info: Cleanin Up The Town Remembering Ghostbusters 2019 1080p AMZN WEBRip DDP5 1 x264-ETHiCS TGx  ⭐
View Torrent Info: True History of the Kelly Gang 2019 1080p WEB-DL DDP5 1 H264-CMRG TGx  ⭐
Hot torrents
TV Torrents
View Torrent Info: Better Call Saul S05E05 (1080p NF WEB-DL x265 HEVC 10bit AC3 5 1 Qman)  UTR
View Torrent Info: The Flash S06E15 720p x265-ZMNT
View Torrent Info: Supernatural S15E12 WEB H264-XLF ettv
View Torrent Info: NCIS New Orleans S06E16 iNTERNAL 720p WEB x264-TRUMP  eztv
View Torrent Info: NCIS New Orleans S06E15 720p HDTV x265-MiNX TGx  ⭐
View Torrent Info: Family Guy S18E15 720p WEB x265-MiNX TGx  ⭐
View Torrent Info: Bobs Burgers S10E16 720p WEB x265-MiNX TGx  ⭐
View Torrent Info: Strike Back S08E05 (1080p WEB-DL x265 HEVC 10bit AAC 5 1 Joy)  UTR
View Torrent Info: Homeland S08E06 WEB H264-XLF  eztv
View Torrent Info: Strike Back S08E04 WEB H264-XLF ettv
ExtraTorrents > Categories > Anime torrents > Dual Audio torrents


Browse Anime torrents

Tales of Vesperia: The First Strike (2009) [1080p x265 HEVC 10bit BluRay Dual Audio AAC 5.1] [Prof]


Download torrent: Tales of Vesperia: The First Strike (2009) [1080p x265 HEVC 10bit BluRay Dual Audio AAC 5.1] [Prof] Magnet link Tales of Vesperia: The First Strike (2009) [1080p x265 HEVC 10bit BluRay Dual Audio AAC 5.1] [Prof] Tales of Vesperia: The First Strike (2009) [1080p x265 HEVC 10bit BluRay Dual Audio AAC 5.1] [Prof] | if not working, try instead: Magnet Link
Info hash: 9D1EE67A63F17E3B6AD277B8A4F101CE7AC53230
Category: Categories > Anime torrents > Dual Audio torrents
Trackers:
7    View all torrent trackers >
Health:
 seeds: 29 ,  leechers: 10
Torrent language: English
Total Size: 2.8 GB
Uploader:
Torrent added: 2020-03-23 11:04

Download Tales of Vesperia: The First Strike (2009) [1080p x265 HEVC 10bit BluRay Dual Audio AAC 5.1] [Prof] torrent if not working, try downloading torrent using Download Tales of Vesperia: The First Strike (2009) [1080p x265 HEVC 10bit BluRay Dual Audio AAC 5.1] [Prof] via Magnet Link




Torrent Description



Synopsis

Ten years after the Great War against the demon-beasts, the empire rules over the world and prosperity relies on the massive use of aer.

Yuri Lowell and Flynn Scifo are two young men who have just enrolled the ranks of the prestigious Imperial Knights. One day, they are sent to the town of Ceazontania, where abnormal aer activity has reportedly caused the proliferation of horribly mutated beasts, with serious threat for the whole region.

Meanwhile, the Knights Supreme Commander Alexei Denoia and the naive Princess Estellise are involved in a behind-the-curtains struggle for power in the capital. The situation in Ceazontania deteriorates as the garrison of Imperial Knights finds that they cannot expect any immediate support from the capital.

Then, Niren Fedrok, commander of the Imperial Knights in Ceazontania, takes an unexpected decision that is going to change Yuri and Flynn's destiny forever.

What are the secrets behind the extraordinary events that are happening around Yuri and Flynn? Will they be able to defend the innocent people of Ceazontania and stay true to their beliefs?

Alternative Titles

English: Tales of Vesperia ~The First Strike~
Japanese: テイルズ オブ ヴェスペリア

Information

Type: Movie
Episodes: 1
Status: Finished Airing
Aired: Oct 3, 2009
Producers: Bandai Visual
Licensors: Funimation
Studios: Production I.G
Source: Game
Genres: Action, Adventure, Fantasy, Magic, Military
Duration: 1 hr. 50 min.
Rating: PG-13 - Teens 13 or older







Format : Matroska
Format version : Version 4
File size : 2.79 GiB
Duration : 1 h 50 min
Overall bit rate : 3 602 kb/s
Movie name : Tales_of_Vesperia
Encoded date : UTC 2020-03-20 01:46:22
Writing application : mkvmerge v41.0.0 ('Smarra') 64-bit
Writing library : libebml v1.3.9 + libmatroska v1.5.2

Video
ID : 1
Format : HEVC
Format/Info : High Efficiency Video Coding
Format profile : Main [email protected]@Main
Codec ID : V_MPEGH/ISO/HEVC
Duration : 1 h 50 min
Bit rate : 1 717 kb/s
Width : 1 920 pixels
Height : 1 080 pixels
Display aspect ratio : 16:9
Frame rate mode : Constant
Frame rate : 23.976 (24000/1001) FPS
Color space : YUV
Chroma subsampling : 4:2:0
Bit depth : 10 bits
Bits/(Pixel*Frame) : 0.035
Stream size : 1.33 GiB (48%)
Writing library : x265 3.3+1-g554c887ac:[Windows][MSVC 1924][64 bit] 10bit
Encoding settings : cpuid=1111039 / frame-threads=3 / numa-pools=12 / wpp / no-pmode / no-pme / no-psnr / no-ssim / log-level=2 / input-csp=1 / input-res=1920x1080 / interlace=0 / total-frames=159348 / level-idc=0 / high-tier=1 / uhd-bd=0 / ref=4 / no-allow-non-conformance / no-repeat-headers / annexb / no-aud / no-hrd / info / hash=0 / no-temporal-layers / open-gop / min-keyint=23 / keyint=250 / gop-lookahead=0 / bframes=8 / b-adapt=2 / b-pyramid / bframe-bias=0 / rc-lookahead=80 / lookahead-slices=6 / scenecut=40 / hist-scenecut=0 / radl=0 / no-splice / no-intra-refresh / ctu=64 / min-cu-size=8 / rect / no-amp / max-tu-size=32 / tu-inter-depth=1 / tu-intra-depth=1 / limit-tu=0 / rdoq-level=2 / dynamic-rd=0.00 / no-ssim-rd / signhide / no-tskip / nr-intra=0 / nr-inter=0 / no-constrained-intra / strong-intra-smoothing / max-merge=3 / limit-refs=3 / limit-modes / me=3 / subme=3 / merange=57 / temporal-mvp / no-frame-dup / no-hme / weightp / no-weightb / no-analyze-src-pics / deblock=0:0 / sao / no-sao-non-deblock / rd=4 / selective-sao=4 / no-early-skip / rskip / no-fast-intra / no-tskip-fast / no-cu-lossless / no-b-intra / no-splitrd-skip / rdpenalty=0 / psy-rd=2.00 / psy-rdoq=1.00 / no-rd-refine / no-lossless / cbqpoffs=0 / crqpoffs=0 / rc=crf / crf=18.0 / qcomp=0.60 / qpstep=4 / stats-write=0 / stats-read=0 / ipratio=1.40 / pbratio=1.30 / aq-mode=2 / aq-strength=0.80 / cutree / zone-count=0 / no-strict-cbr / qg-size=32 / no-rc-grain / qpmax=69 / qpmin=0 / no-const-vbv / sar=0 / overscan=0 / videoformat=5 / range=0 / colorprim=2 / transfer=2 / colormatrix=2 / chromaloc=0 / display-window=0 / cll=0,0 / min-luma=0 / max-luma=1023 / log2-max-poc-lsb=8 / vui-timing-info / vui-hrd-info / slices=1 / no-opt-qp-pps / no-opt-ref-list-length-pps / no-multi-pass-opt-rps / scenecut-bias=0.05 / hist-threshold=0.01 / no-opt-cu-delta-qp / no-aq-motion / no-hdr10 / no-hdr10-opt / no-dhdr10-opt / no-idr-recovery-sei / analysis-reuse-level=0 / analysis-save-reuse-level=0 / analysis-load-reuse-level=0 / scale-factor=0 / refine-intra=0 / refine-inter=0 / refine-mv=1 / refine-ctu-distortion=0 / no-limit-sao / ctu-info=0 / no-lowpass-dct / refine-analysis-type=0 / copy-pic=1 / max-ausize-factor=1.0 / no-dynamic-refine / no-single-sei / no-hevc-aq / no-svt / no-field / qp-adaptation-range=1.00 / no-scenecut-aware-qpconformance-window-offsets / right=0 / bottom=0
Default : Yes
Forced : No

Audio #1
ID : 2
Format : AAC LC
Format/Info : Advanced Audio Codec Low Complexity
Codec ID : A_AAC-2
Duration : 1 h 50 min
Bit rate : 963 kb/s
Channel(s) : 6 channels
Channel layout : C L R Ls Rs LFE
Sampling rate : 48.0 kHz
Frame rate : 46.875 FPS (1024 SPF)
Compression mode : Lossy
Delay relative to video : 9 ms
Stream size : 763 MiB (27%)
Language : Japanese
Default : No
Forced : No

Audio #2
ID : 3
Format : AAC LC
Format/Info : Advanced Audio Codec Low Complexity
Codec ID : A_AAC-2
Duration : 1 h 50 min
Bit rate : 896 kb/s
Channel(s) : 6 channels
Channel layout : C L R Ls Rs LFE
Sampling rate : 48.0 kHz
Frame rate : 46.875 FPS (1024 SPF)
Compression mode : Lossy
Delay relative to video : 9 ms
Stream size : 708 MiB (25%)
Language : English
Default : Yes
Forced : No

Text #1
ID : 4
Format : PGS
Muxing mode : zlib
Codec ID : S_HDMV/PGS
Codec ID/Info : Picture based subtitle format used on BDs/HD-DVDs
Duration : 1 h 49 min
Bit rate : 25.0 kb/s
Count of elements : 1876
Stream size : 19.7 MiB (1%)
Language : English
Default : No
Forced : No

Text #2
ID : 5
Format : PGS
Muxing mode : zlib
Codec ID : S_HDMV/PGS
Codec ID/Info : Picture based subtitle format used on BDs/HD-DVDs
Duration : 4 min 56 s
Bit rate : 12.6 kb/s
Count of elements : 36
Stream size : 456 KiB (0%)
Language : English
Default : Yes
Forced : No

Menu
00:00:00.000 : ja:Chapter 01
00:01:53.196 : ja:Chapter 02
00:07:36.414 : ja:Chapter 03
00:09:40.621 : ja:Chapter 04
00:11:06.999 : ja:Chapter 05
00:18:18.138 : ja:Chapter 06
00:29:41.321 : ja:Chapter 07
00:32:04.130 : ja:Chapter 08
00:38:10.413 : ja:Chapter 09
00:42:22.122 : ja:Chapter 10
00:45:59.673 : ja:Chapter 11
00:49:15.577 : ja:Chapter 12
01:06:56.137 : ja:Chapter 13
01:09:38.299 : ja:Chapter 14
01:12:59.541 : ja:Chapter 15
01:20:30.992 : ja:Chapter 16
01:25:13.983 : ja:Chapter 17
01:27:51.891 : ja:Chapter 18
01:32:12.610 : ja:Chapter 19
01:33:47.538 : ja:Chapter 20
01:38:15.014 : ja:Chapter 21
01:42:39.903 : ja:Chapter 22
01:45:27.237 : ja:Chapter 23

Source:




Coming soon:

4k UHD

Fury
Get Out
Guardians of the Galaxy
Guardians of the Galaxy Vol. 2

1080p

Monsters University
Elysium
World War Z

TV

Last Week Tonight (ongoing)
Workaholics S03

Anime

And You Thought There Was Never a Girl Online?
Claymore


Download Tales of Vesperia: The First Strike (2009) [1080p x265 HEVC 10bit BluRay Dual Audio AAC 5.1] [Prof] torrent




ExtraTorrent - Cpasbien - LibertVF - LibertyLand- HDS- Zone telechargement- Torrent9
2006-2019 ExtraTorrents